<?xml version="1.0" standalone="no"?>
<!DOCTYPE svg PUBLIC "-//W3C//DTD SVG 1.1//EN" "http://www.w3.org/Graphics/SVG/1.1/DTD/svg11.dtd" >
<svg xmlns="http://www.w3.org/2000/svg" xmlns:xlink="http://www.w3.org/1999/xlink" version="1.1">
<metadata></metadata>
<defs>
<font id="human_sansthin" horiz-adv-x="1198" >
<font-face units-per-em="2048" ascent="1556" descent="-492" />
<missing-glyph horiz-adv-x="575" />
<glyph unicode="&#xfb01;" horiz-adv-x="1032" d="M61 997v27h205v170q0 146 72.5 228.5t200.5 82.5q98 0 157 -59v-37q-66 70 -159 70q-112 0 -176 -75.5t-64 -209.5v-170h381v-27h-381v-997h-31v997h-205zM813 1268q0 21 16 38t39 17q20 0 38 -17.5t18 -37.5q0 -23 -17.5 -39.5t-38.5 -16.5q-23 0 -39 16.5t-16 39.5z M850 0v1024h31v-1024h-31z" />
<glyph unicode="&#xfb02;" horiz-adv-x="970" d="M61 997v27h205v170q0 146 72.5 228.5t200.5 82.5q98 0 157 -59v-37q-66 70 -159 70q-112 0 -176 -75.5t-64 -209.5v-170h381v-27h-381v-997h-31v997h-205zM838 0v1495h30v-1495h-30z" />
<glyph horiz-adv-x="0" />
<glyph horiz-adv-x="682" />
<glyph unicode=" "  horiz-adv-x="575" />
<glyph unicode="&#x09;" horiz-adv-x="575" />
<glyph unicode="&#xa0;" horiz-adv-x="575" />
<glyph unicode="!" horiz-adv-x="370" d="M141 33q0 19 13.5 32t33.5 13q17 0 30 -13t13 -32q0 -17 -13 -30t-30 -13q-20 0 -33.5 12.5t-13.5 30.5zM170 264v1088h31v-1088h-31z" />
<glyph unicode="&#x22;" horiz-adv-x="489" d="M135 1069v324h33v-324h-33zM322 1069v324h32v-324h-32z" />
<glyph unicode="#" horiz-adv-x="1294" d="M88 436v29h287l67 442h-292v29h296l64 416h33l-64 -416h404l63 416h31l-62 -416h291v-29h-297l-65 -442h301v-29h-305l-66 -436h-33l66 436h-404l-65 -436h-33l66 436h-283zM408 465h403l68 442h-404z" />
<glyph unicode="$" horiz-adv-x="1060" d="M109 279q-2 44 16 122h27q-22 -70 -17 -118q10 -133 108.5 -206.5t266.5 -78.5v668q-210 69 -293.5 147t-83.5 205q0 160 102 257.5t275 100.5v129h31v-129q184 -6 288.5 -108.5t90.5 -257.5h-27q12 143 -83 239.5t-269 102.5v-666l16 -6q217 -68 308 -158.5t91 -214.5 q0 -153 -112.5 -243t-302.5 -93v-129h-31v129q-179 5 -285 86t-116 222zM162 1018q0 -116 76 -186t272 -136v656q-163 -3 -255.5 -92.5t-92.5 -241.5zM541 -2q181 3 285 84t104 225q0 114 -88.5 198.5t-296.5 149.5l-4 2v-659z" />
<glyph unicode="%" horiz-adv-x="1544" d="M61 1012q0 140 101.5 240t243.5 100q141 0 241.5 -100t100.5 -240q0 -141 -100.5 -241.5t-241.5 -100.5q-142 0 -243.5 100.5t-101.5 241.5zM88 1012q0 -129 93.5 -221.5t224.5 -92.5q129 0 221 92.5t92 221.5q0 128 -92 220.5t-221 92.5q-130 0 -224 -92.5t-94 -220.5z M295 0l915 1352h37l-915 -1352h-37zM838 342q0 140 101 240t243 100q141 0 241.5 -100t100.5 -240q0 -141 -100.5 -241.5t-241.5 -100.5q-142 0 -243 100.5t-101 241.5zM864 342q0 -129 94 -222t224 -93q129 0 222 93t93 222q0 127 -93 219t-222 92q-130 0 -224 -91.5 t-94 -219.5z" />
<glyph unicode="&#x26;" horiz-adv-x="1300" d="M102 461q0 158 95 284.5t243 172.5l-39 67q-53 91 -53 180q0 110 79 189.5t189 79.5q112 0 190.5 -79t78.5 -190h-35q0 98 -68.5 167t-165.5 69t-166 -69t-69 -167q0 -81 51 -172q3 -6 92 -157t205.5 -350t188.5 -322q112 128 112 297v209h154v-33h-121v-176 q0 -189 -127 -326q3 -5 57 -102h205v-33h-225l-64 109q-139 -129 -325 -129q-198 0 -340 141t-142 340zM135 461q0 -122 60.5 -225.5t164 -163.5t224.5 -60q181 0 309 125l-436 752q-139 -42 -230.5 -161t-91.5 -267z" />
<glyph unicode="'" horiz-adv-x="303" d="M135 1069v324h33v-324h-33z" />
<glyph unicode="(" horiz-adv-x="516" d="M106 647q0 261 90.5 499t254.5 429l22 -21q-160 -189 -248 -421t-88 -486q0 -258 90 -492.5t254 -422.5l-24 -21q-166 192 -258.5 432.5t-92.5 503.5z" />
<glyph unicode=")" horiz-adv-x="516" d="M35 -268q164 188 254 422.5t90 492.5q0 254 -88 486t-248 421l23 21q164 -191 254 -429t90 -499q0 -263 -92.5 -503.5t-258.5 -432.5z" />
<glyph unicode="*" horiz-adv-x="1042" d="M94 1176l10 28l402 -131v422h31v-420l403 129l8 -28l-403 -134l250 -342l-25 -16l-250 340l-246 -340l-26 16l248 344z" />
<glyph unicode="+" horiz-adv-x="1236" d="M143 633v29h459v454h33v-454h459v-29h-459v-471h-33v471h-459z" />
<glyph unicode="," horiz-adv-x="342" d="M82 -182q102 40 111 170h-9q-20 0 -33.5 13.5t-13.5 33.5q0 19 13.5 32t33.5 13q17 0 30.5 -13t14.5 -32q9 -97 -29 -162t-106 -86z" />
<glyph unicode="-" horiz-adv-x="851" d="M139 539v30h574v-30h-574z" />
<glyph unicode="." horiz-adv-x="342" d="M115 35q0 23 16 39t41 16q23 0 39 -16t16 -39q0 -25 -16 -41.5t-39 -16.5q-25 0 -41 16.5t-16 41.5z" />
<glyph unicode="/" horiz-adv-x="880" d="M72 -143l704 1638h33l-705 -1638h-32z" />
<glyph unicode="0" horiz-adv-x="1124" d="M82 676q0 175 23.5 299.5t78 216t148.5 136t231 44.5t231 -44.5t148.5 -136t78 -216t23.5 -299.5t-23.5 -299.5t-78 -216t-148.5 -136t-231 -44.5t-231 44.5t-148.5 136t-78 216t-23.5 299.5zM113 676q0 -135 13 -236.5t44 -185.5t82.5 -137t129 -82t181.5 -29 q129 0 217.5 43t138.5 131.5t71.5 207.5t21.5 288t-21.5 288t-71.5 207.5t-138.5 131.5t-217.5 43q-104 0 -181.5 -29t-129 -82t-82.5 -137t-44 -185.5t-13 -236.5z" />
<glyph unicode="1" horiz-adv-x="436" d="M57 1137l267 215h30v-1352h-30v1321l-248 -203z" />
<glyph unicode="2" horiz-adv-x="1069" d="M119 -2q60 56 152 141t142 131.5t122.5 116t111.5 112t89 100.5t76 100.5t51.5 93.5t35.5 98t10 96q0 156 -102 257.5t-258 101.5q-160 0 -268 -110.5t-115 -297.5l-29 12q9 191 122.5 306.5t289.5 115.5q169 0 279 -106.5t110 -282.5q0 -50 -9 -97.5t-32 -96.5 t-46.5 -90t-69.5 -96t-82 -95t-104 -106t-115 -110t-135 -126t-146 -137v-2h61h696v-27z" />
<glyph unicode="3" horiz-adv-x="1067" d="M88 289l27 18q27 -141 138 -221t271 -80q173 0 281 92.5t108 249.5q0 141 -91 229.5t-255 88.5h-207v32h207q148 0 230 91.5t82 230.5q0 152 -94.5 239t-252.5 87q-143 0 -237.5 -71.5t-132.5 -197.5l-31 19q44 128 146.5 202t254.5 74q171 0 274 -94t103 -258 q0 -135 -70.5 -226.5t-191.5 -111.5v-2q131 -9 214 -101.5t83 -230.5q0 -167 -117.5 -267.5t-304.5 -100.5q-168 0 -285.5 84t-148.5 225z" />
<glyph unicode="4" horiz-adv-x="958" d="M39 420l737 926v-897h101v-29h-101v-420h-31v420h-706zM96 449h649v808zM776 1346l4 6h-4v-6z" />
<glyph unicode="5" horiz-adv-x="987" d="M92 184l27 19q53 -89 144 -141t198 -52q166 0 283.5 117.5t117.5 284.5q0 166 -117.5 282.5t-283.5 116.5q-107 0 -197 -50.5t-145 -137.5l-25 16l84 713h621v-31h-594l-74 -631q60 72 146 114t184 42q179 0 305.5 -127t126.5 -307q0 -118 -58 -218t-157.5 -158.5 t-216.5 -58.5q-115 0 -213 56.5t-156 150.5z" />
<glyph unicode="6" horiz-adv-x="1095" d="M115 412q0 100 41 184l385 756l34 2l-315 -617q122 109 287 109q180 0 307 -127t127 -307t-127 -307.5t-307 -127.5q-117 0 -216.5 58.5t-157.5 158.5t-58 218zM145 412q0 -167 118.5 -284.5t283.5 -117.5q166 0 284.5 117.5t118.5 284.5q0 165 -118.5 282t-284.5 117 q-165 0 -283.5 -117t-118.5 -282z" />
<glyph unicode="7" horiz-adv-x="892" d="M45 1321v31h829l-581 -1352h-31l572 1321h-789z" />
<glyph unicode="8" horiz-adv-x="1069" d="M113 356q0 79 32.5 152t105 130t173.5 73v2q-69 13 -120.5 47t-79.5 80t-41 93.5t-13 96.5q0 147 104.5 244.5t260.5 97.5q155 0 259.5 -97.5t104.5 -244.5q0 -49 -13 -96.5t-41 -93.5t-79 -80t-119 -47v-2q78 -13 139 -50t97 -87.5t54.5 -106t18.5 -111.5 q0 -157 -123.5 -266.5t-297.5 -109.5t-298 109.5t-124 266.5zM143 356q0 -145 115.5 -247.5t276.5 -102.5q105 0 195 46.5t143 127t53 176.5q0 65 -25.5 125t-73.5 108.5t-123.5 77.5t-168.5 29t-169 -29t-123.5 -77.5t-73.5 -108.5t-26 -125zM201 1030q0 -124 87 -213.5 t247 -89.5t246.5 89.5t86.5 213.5q0 133 -96.5 224.5t-236.5 91.5q-138 0 -236 -91t-98 -225z" />
<glyph unicode="9" horiz-adv-x="1030" d="M82 944q0 180 127 307t307 127q179 0 305.5 -127t126.5 -307q0 -117 -53 -209l-375 -733l-35 -2l318 618q-124 -108 -287 -108q-180 0 -307 127t-127 307zM113 944q0 -165 118.5 -282t284.5 -117q165 0 283.5 117t118.5 282q0 167 -118.5 284.5t-283.5 117.5 q-166 0 -284.5 -117.5t-118.5 -284.5z" />
<glyph unicode=":" horiz-adv-x="391" d="M139 35q0 23 16.5 39t41.5 16q23 0 39 -16t16 -39q0 -25 -16 -41.5t-39 -16.5q-25 0 -41.5 16.5t-16.5 41.5zM139 981q0 23 16.5 39t41.5 16q23 0 39 -16t16 -39q0 -25 -16 -41t-39 -16q-25 0 -41.5 16t-16.5 41z" />
<glyph unicode=";" horiz-adv-x="391" d="M104 -182q102 40 111 170h-8q-20 0 -33.5 13.5t-13.5 33.5q0 19 13.5 32t33.5 13q17 0 30 -13t15 -32q9 -97 -29 -162t-106 -86zM145 979q0 25 16.5 41t39.5 16q25 0 41 -16t16 -41q0 -23 -16 -39t-41 -16q-23 0 -39.5 16t-16.5 39z" />
<glyph unicode="&#x3c;" horiz-adv-x="1236" d="M186 594v39l906 475v-35l-877 -459l877 -460v-35z" />
<glyph unicode="=" horiz-adv-x="1236" d="M178 418v28h881v-28h-881zM178 836v28h881v-28h-881z" />
<glyph unicode="&#x3e;" horiz-adv-x="1236" d="M145 119v35l877 460l-877 459v35l906 -475v-39z" />
<glyph unicode="?" horiz-adv-x="1011" d="M82 1147q60 103 165 165t230 62q188 0 320.5 -132.5t132.5 -319.5q0 -186 -129 -318t-312 -137v-240h-32v269h20q175 0 298.5 124t123.5 302q0 175 -123.5 298t-298.5 123q-119 0 -216.5 -58t-154.5 -157zM418 35q0 23 16 39t41 16q23 0 39 -16t16 -39q0 -25 -16 -41.5 t-39 -16.5q-25 0 -41 16.5t-16 41.5z" />
<glyph unicode="@" horiz-adv-x="1933" d="M109 496q0 244 111.5 441t311.5 309t451 112q171 0 322 -54t264.5 -152.5t179.5 -247t66 -326.5q0 -116 -27.5 -223t-70 -179.5t-93.5 -116t-98 -43.5q-42 0 -72 35.5t-33 100.5v147q-39 -165 -165 -257.5t-300 -92.5q-221 0 -358 143t-137 389t138 389.5t357 143.5 q173 0 298 -91t167 -255v260h31v-748q0 -61 22 -97t56 -36q35 0 78.5 40.5t83 108t66 170t26.5 212.5q0 171 -64.5 314.5t-174.5 238t-255.5 146.5t-308.5 52q-180 0 -337 -64t-267.5 -174.5t-174 -264.5t-63.5 -328q0 -175 64 -331t173.5 -267.5t263 -176.5t325.5 -65 q197 0 385 88l14 -31q-178 -88 -391 -88q-183 0 -343.5 66.5t-275 181.5t-180 276.5t-65.5 344.5zM492 481q0 -234 131.5 -370t334.5 -136q202 0 331.5 134.5t129.5 363.5l2 -4v20l-2 -2q0 228 -129.5 364t-333.5 136q-203 0 -333.5 -136.5t-130.5 -369.5z" />
<glyph unicode="A" d="M25 0l557 1352h34l558 -1352h-33l-195 471h-694l-195 -471h-32zM264 498h670l-299 725l-35 94l-35 -92z" />
<glyph unicode="B" horiz-adv-x="1267" d="M203 0v1352h495q204 0 309 -86.5t105 -255.5q0 -268 -272 -326v-2q148 -21 229.5 -107t81.5 -229q0 -170 -115 -258t-338 -88h-495zM233 27h465q208 0 315 81t107 240t-107 239.5t-315 80.5h-465v-641zM233 696h465q188 0 285.5 78.5t97.5 233.5q0 156 -97.5 236.5 t-285.5 80.5h-465v-629z" />
<glyph unicode="C" horiz-adv-x="1521" d="M102 676q0 193 95 356.5t258.5 258.5t355.5 95q164 0 307 -69.5t242 -190.5l-25 -20q-96 116 -231.5 182t-292.5 66q-138 0 -263.5 -53.5t-215.5 -144t-143.5 -216t-53.5 -264.5t53.5 -264.5t143.5 -216t215.5 -144t263.5 -53.5q157 0 292.5 66t231.5 182l25 -21 q-98 -122 -241.5 -191t-307.5 -69q-145 0 -276.5 56.5t-226 151.5t-150.5 226.5t-56 276.5z" />
<glyph unicode="D" horiz-adv-x="1419" d="M184 0v1352h478q160 0 288 -50.5t209.5 -139.5t124.5 -207.5t43 -258.5q0 -149 -43 -275.5t-124.5 -220.5t-209.5 -147t-288 -53h-478zM215 27h447q152 0 274 51.5t200 142t119 211.5t41 264q0 132 -41 246t-119 199.5t-200 134.5t-274 49h-447v-1298z" />
<glyph unicode="E" horiz-adv-x="1196" d="M164 0v1352h893v-27h-862v-663h782v-27h-782v-608h897v-27h-928z" />
<glyph unicode="F" horiz-adv-x="1157" d="M203 0v1352h893v-27h-863v-661h779v-27h-779v-637h-30z" />
<glyph unicode="G" horiz-adv-x="1562" d="M100 676q0 189 93.5 349.5t254 253.5t349.5 93q192 0 347 -89t247 -247l-27 -14q-89 148 -237.5 232.5t-329.5 84.5q-136 0 -259 -52t-212 -140t-141 -211t-52 -260q0 -182 88.5 -335t241 -241t334.5 -88q220 0 391.5 125.5t236.5 327.5h-471v31h516q-61 -226 -247 -371 t-426 -145q-189 0 -349.5 93t-254 253.5t-93.5 349.5z" />
<glyph unicode="H" horiz-adv-x="1425" d="M203 0v1352h30v-690h959v690h31v-1352h-31v635h-959v-635h-30z" />
<glyph unicode="I" horiz-adv-x="481" d="M225 0v1352h31v-1352h-31z" />
<glyph unicode="J" horiz-adv-x="1017" d="M66 426h30v-43q20 -377 338 -377q169 0 260.5 98.5t102.5 286.5q2 16 2 47v914h30v-912q0 -223 -100.5 -341.5t-294.5 -118.5q-178 0 -266.5 104.5t-99.5 284.5q-2 18 -2 57z" />
<glyph unicode="K" horiz-adv-x="1163" d="M203 0v1352h30v-828l814 828h45l-531 -539l551 -813h-41l-534 788l-304 -307v-481h-30z" />
<glyph unicode="L" horiz-adv-x="1128" d="M203 0v1352h30v-1325h854v-27h-884z" />
<glyph unicode="M" horiz-adv-x="1607" d="M203 0v1352h41l536 -1258l25 -57l22 55l539 1260h39v-1352h-31v1192l2 115l-553 -1307h-39l-553 1307l2 -115v-1192h-30z" />
<glyph unicode="N" horiz-adv-x="1341" d="M164 0v1352h43l891 -1243l51 -78l-2 114v1207h31v-1352h-41l-891 1243l-53 78l2 -115v-1206h-31z" />
<glyph unicode="O" horiz-adv-x="1622" d="M102 676q0 193 95 356.5t258.5 258.5t355.5 95q146 0 277.5 -56t226.5 -151t151 -226.5t56 -276.5t-56.5 -276.5t-151.5 -226.5t-226.5 -151.5t-276.5 -56.5t-276.5 56.5t-226 151.5t-150.5 226.5t-56 276.5zM133 676q0 -138 54 -263.5t145 -216.5t216.5 -144.5 t262.5 -53.5q138 0 263.5 53.5t216.5 144.5t144.5 216.5t53.5 263.5t-53.5 263.5t-144.5 216.5t-216.5 144.5t-263.5 53.5q-137 0 -262.5 -53.5t-216.5 -144.5t-145 -216.5t-54 -263.5z" />
<glyph unicode="P" horiz-adv-x="1257" d="M203 0v1352h489q195 0 318 -117t123 -291q0 -115 -54.5 -213t-156.5 -158.5t-230 -60.5h-459v-512h-30zM233 541h459q120 0 215 56.5t145 148t50 198.5q0 164 -113.5 272.5t-296.5 108.5h-459v-784z" />
<glyph unicode="Q" horiz-adv-x="1622" d="M102 676q0 193 95 356.5t258.5 258.5t355.5 95q146 0 277.5 -56t226.5 -151t151 -226.5t56 -276.5q0 -167 -73 -313.5t-200 -245.5l213 -283l-22 -16l-213 282q-184 -135 -416 -135q-145 0 -276.5 56.5t-226 151.5t-150.5 226.5t-56 276.5zM133 676q0 -138 54 -263.5 t145 -216.5t216.5 -144.5t262.5 -53.5q219 0 397 129l-123 162l23 16l123 -162q120 94 189 233.5t69 299.5q0 138 -53.5 263.5t-144.5 216.5t-216.5 144.5t-263.5 53.5q-137 0 -262.5 -53.5t-216.5 -144.5t-145 -216.5t-54 -263.5z" />
<glyph unicode="R" horiz-adv-x="1288" d="M203 0v1352h489q195 0 318 -117t123 -291q0 -143 -83.5 -257.5t-222.5 -156.5l353 -530h-35l-350 522q-55 -10 -103 -10h-459v-512h-30zM233 541h459q120 0 215 56.5t145 148t50 198.5q0 164 -113.5 272.5t-296.5 108.5h-459v-784z" />
<glyph unicode="S" horiz-adv-x="1081" d="M109 279v9q0 43 16 113h31q-18 -67 -17 -105v-13q12 -135 112 -204t277 -69q186 0 292 75.5t106 217.5q0 35 -7.5 66t-18.5 56t-31.5 49t-38.5 41t-48.5 35.5t-53 30.5t-59.5 27t-60.5 24t-63.5 23q-54 19 -81.5 29t-72 27t-67 29t-55 30.5t-49 35.5t-36.5 40.5t-29 48.5 t-15.5 57t-6.5 68q0 162 105.5 258t285.5 96q188 0 298 -103q99 -93 99 -230q0 -15 -1 -31h-31q1 16 1 31q0 125 -88 210q-98 95 -278 95q-170 0 -264 -85t-94 -239q0 -36 5 -65.5t18.5 -55.5t28 -45.5t43 -39t53 -34t68.5 -32.5t79.5 -31.5t95.5 -34.5q48 -17 80 -29 t78 -33t76.5 -40.5t64.5 -49t53.5 -61.5t33 -75t13.5 -91q0 -152 -115.5 -238.5t-312.5 -86.5q-189 0 -301 81t-118 218z" />
<glyph unicode="T" horiz-adv-x="1148" d="M41 1325v27h1067v-27h-518v-1325h-31v1325h-518z" />
<glyph unicode="U" horiz-adv-x="1347" d="M164 481v871h31v-871q0 -226 126 -350.5t353 -124.5q225 0 352 124.5t127 350.5v871h31v-871q0 -240 -134.5 -370.5t-375.5 -130.5t-375.5 130.5t-134.5 370.5z" />
<glyph unicode="V" horiz-adv-x="1177" d="M35 1352h33l522 -1317l53 141l467 1176h33l-533 -1352h-43z" />
<glyph unicode="W" horiz-adv-x="1859" d="M47 1352h33l436 -1321l393 1321h41l396 -1321l434 1321h32l-446 -1352h-41l-309 1030l-84 279h-2l-82 -279l-313 -1030h-41z" />
<glyph unicode="X" horiz-adv-x="1097" d="M41 0l494 700l-451 652h39l432 -625l440 625h43l-463 -656l482 -696h-39l-463 670l-473 -670h-41z" />
<glyph unicode="Y" horiz-adv-x="1105" d="M61 1352h37l264 -463l191 -332l453 795h36l-475 -828v-524h-30v524z" />
<glyph unicode="Z" horiz-adv-x="1138" d="M49 0l967 1325h-932v27h985l-965 -1325h988v-27h-1043z" />
<glyph unicode="[" horiz-adv-x="546" d="M156 -344v1839h368v-27h-340v-1785h340v-27h-368z" />
<glyph unicode="\" horiz-adv-x="712" d="M-96 1495h33l704 -1638h-33z" />
<glyph unicode="]" horiz-adv-x="546" d="M23 -317h339v1785h-339v27h368v-1839h-368v27z" />
<glyph unicode="^" horiz-adv-x="1091" d="M76 727l450 768h37l451 -768h-37l-432 737l-432 -737h-37z" />
<glyph unicode="_" horiz-adv-x="1021" d="M0 -199h1022v-26h-1022v26z" />
<glyph unicode="`" horiz-adv-x="1128" d="M311 1495h33l178 -301h-30z" />
<glyph unicode="a" horiz-adv-x="1120" d="M113 262q0 122 89.5 191.5t295.5 101.5q166 28 407 59v99q0 142 -98 221.5t-260 79.5q-305 0 -389 -240l-25 21q92 249 414 249q177 0 283 -86.5t106 -244.5v-557v-156h-33v168l2 35q-28 -72 -105 -124.5t-166.5 -75.5t-180.5 -23q-159 0 -249.5 81t-90.5 201zM143 262 q0 -106 85 -181t235 -75q64 0 137 18t143 52.5t116 95.5t46 137v275l-389 -54q-203 -34 -288 -98.5t-85 -169.5z" />
<glyph unicode="b" horiz-adv-x="1243" d="M160 0v1495h30v-788q44 159 168.5 248t294.5 89q220 0 358 -143t138 -389t-137.5 -389t-358.5 -143q-171 0 -296 90t-167 252v-322h-30zM190 504q0 -229 129.5 -363.5t331.5 -134.5q99 0 184.5 34.5t148 98.5t98.5 160t36 213q0 233 -131 369.5t-334 136.5 q-204 0 -333.5 -136t-129.5 -364v-14z" />
<glyph unicode="c" horiz-adv-x="1146" d="M92 512q0 144 71 266.5t194 194t268 71.5q134 0 251 -63.5t189 -171.5l-23 -16q-69 102 -178.5 161.5t-236.5 59.5q-137 0 -252.5 -67.5t-182.5 -183t-67 -251.5t67 -251.5t182.5 -183t252.5 -67.5q127 0 235.5 59t177.5 160l25 -16q-73 -108 -189.5 -170.5t-250.5 -62.5 q-145 0 -268 71.5t-194 194t-71 266.5z" />
<glyph unicode="d" horiz-adv-x="1257" d="M94 512q0 246 138 389t358 143q170 0 294.5 -89t168.5 -248v788h30v-1495h-30v322q-42 -162 -167 -252t-296 -90q-221 0 -358.5 143t-137.5 389zM125 512q0 -117 36 -213t98.5 -160t148 -98.5t184.5 -34.5q202 0 331.5 134.5t129.5 363.5v14q0 228 -129.5 364t-333.5 136 q-203 0 -334 -136.5t-131 -369.5z" />
<glyph unicode="e" d="M123 512q0 245 140 388.5t360 143.5q207 0 340 -146t133 -394v-15h-942q7 -223 139.5 -353t339.5 -130q132 0 245.5 62.5t163.5 169.5l25 -15q-53 -112 -172.5 -177.5t-261.5 -65.5q-226 0 -368 143t-142 389zM154 520h915q-4 230 -127 364t-319 134q-204 0 -335 -134 t-134 -364z" />
<glyph unicode="f" horiz-adv-x="735" d="M61 997v27h205v170q0 146 72.5 228.5t200.5 82.5q98 0 157 -59v-37q-66 70 -159 70q-112 0 -176 -75.5t-64 -209.5v-170h381v-27h-381v-997h-31v997h-205z" />
<glyph unicode="g" horiz-adv-x="1122" d="M82 -166q0 86 63 147t168 78q-94 28 -94 127q0 125 131 136q-99 51 -157 143.5t-58 196.5q0 73 29.5 142t81.5 122t129 85.5t166 32.5q149 0 260 -90l147 160l19 -18l-148 -158q59 -56 91 -128t32 -148q0 -98 -49 -185t-142 -142.5t-210 -55.5q-65 0 -133 20 q-93 -1 -125.5 -31.5t-32.5 -81.5q0 -25 6 -42t23.5 -34t54.5 -25.5t94 -8.5h252q157 0 248.5 -62t91.5 -168q0 -127 -130 -206.5t-345 -79.5q-209 0 -336 75.5t-127 198.5zM113 -162q0 -111 120.5 -181.5t311.5 -70.5q194 0 319 72t125 186q0 92 -84.5 147.5t-226.5 55.5 h-262q-132 0 -217.5 -58.5t-85.5 -150.5zM166 662q0 -89 46 -170t133.5 -134t195.5 -53q107 0 193.5 53t131.5 134t45 170t-45 170t-131.5 133.5t-193.5 52.5q-108 0 -195.5 -52.5t-133.5 -133.5t-46 -170z" />
<glyph unicode="h" horiz-adv-x="1161" d="M160 0v1495h30v-747q35 131 151 215t277 84q178 0 279.5 -97.5t101.5 -273.5v-674h-30v670q0 164 -96 256t-261 92q-178 0 -300 -119.5t-122 -282.5v-618h-30z" />
<glyph unicode="i" horiz-adv-x="428" d="M160 1268q0 21 16 38t39 17q20 0 37.5 -17.5t17.5 -37.5q0 -23 -17 -39.5t-38 -16.5q-23 0 -39 16.5t-16 39.5zM197 0v1024h30v-1024h-30z" />
<glyph unicode="j" horiz-adv-x="378" d="M-63 -414q107 0 172 77t65 206v1155h31v-1155q0 -141 -73 -225t-195 -84v26zM137 1268q0 21 16.5 38t39.5 17q20 0 36.5 -17.5t16.5 -37.5q0 -23 -16 -39.5t-37 -16.5q-23 0 -39.5 16.5t-16.5 39.5z" />
<glyph unicode="k" horiz-adv-x="985" d="M174 0v1495h31v-1120l698 649h47l-450 -418l461 -606h-39l-445 584l-272 -252v-332h-31z" />
<glyph unicode="l" horiz-adv-x="399" d="M184 0v1495h31v-1495h-31z" />
<glyph unicode="m" horiz-adv-x="1984" d="M174 0v1024h31v-272q36 128 153 210t275 82q160 0 259 -79.5t118 -225.5q31 135 149 222.5t281 87.5q178 0 279.5 -97.5t101.5 -273.5v-674h-31v670q0 165 -95 256.5t-261 91.5q-177 0 -298.5 -119t-121.5 -282v-621h-31v670q0 163 -96 255.5t-260 92.5 q-178 0 -300 -119.5t-122 -282.5v-616h-31z" />
<glyph unicode="n" horiz-adv-x="1187" d="M174 0v1024h31v-279q35 130 152 214.5t276 84.5q178 0 279.5 -97t101.5 -273v-674h-31v670q0 163 -96 255.5t-260 92.5q-178 0 -300 -119.5t-122 -282.5v-616h-31z" />
<glyph unicode="o" horiz-adv-x="1269" d="M102 512q0 144 71 266.5t194 194t268 71.5q144 0 266.5 -71.5t194 -194t71.5 -266.5t-71.5 -266.5t-194 -194t-266.5 -71.5q-145 0 -268 71.5t-194 194t-71 266.5zM133 512q0 -134 68 -249t183.5 -183t250.5 -68t250.5 68t183.5 183t68 249t-68 249.5t-183.5 184 t-250.5 68.5t-250.5 -68.5t-183.5 -184t-68 -249.5z" />
<glyph unicode="p" horiz-adv-x="1236" d="M143 -430v1454h31v-322q42 162 167 252t296 90q221 0 358.5 -143t137.5 -389t-138 -389t-358 -143q-170 0 -294.5 89t-168.5 248v-747h-31zM174 506q0 -228 129.5 -364t333.5 -136q203 0 334 136.5t131 369.5q0 117 -36 213t-98.5 160t-148 98.5t-184.5 34.5 q-202 0 -331.5 -134.5t-129.5 -363.5v-14z" />
<glyph unicode="q" horiz-adv-x="1243" d="M88 512q0 246 138 389t358 143q173 0 298 -91t167 -255v326h30v-1454h-30v760q-39 -165 -165 -257.5t-300 -92.5q-221 0 -358.5 143t-137.5 389zM119 512q0 -117 36 -213t98.5 -160t148 -98.5t184.5 -34.5q202 0 331.5 134.5t129.5 363.5l2 -4v20l-2 -2q0 228 -129.5 364 t-333.5 136q-203 0 -334 -136.5t-131 -369.5z" />
<glyph unicode="r" horiz-adv-x="770" d="M174 0v1024h31v-272q34 127 124 209.5t212 82.5q98 0 147 -49l-18 -22q-23 23 -50.5 34t-80.5 11q-93 0 -171 -61t-120.5 -157.5t-42.5 -203.5v-596h-31z" />
<glyph unicode="s" horiz-adv-x="1001" d="M96 227l29 15q26 -114 130.5 -175t260.5 -61q166 0 262 67t96 183q0 39 -11.5 70.5t-37.5 54.5t-52 39t-73.5 30t-81.5 22t-94 20q-52 10 -81 16.5t-75.5 19.5t-73.5 25.5t-60 33t-50.5 44t-30 56.5t-12.5 73q0 126 106 205t283 79q145 0 243 -61.5t126 -194.5l-29 -16 q-24 123 -113 184.5t-231 61.5q-158 0 -256 -68.5t-98 -183.5q0 -36 12 -66t28.5 -51.5t48.5 -40.5t57 -30.5t69.5 -23.5t71.5 -18t76 -16q47 -9 72 -15t66.5 -16.5t64.5 -20t54 -24.5t48 -32.5t34 -40t24 -51.5t7 -64q0 -129 -104.5 -202.5t-286.5 -73.5 q-166 0 -277.5 63.5t-140.5 183.5z" />
<glyph unicode="t" horiz-adv-x="798" d="M72 997v27h204v276h31v-276h395v-27h-395v-739q0 -252 213 -252q102 0 178 70l19 -19q-31 -34 -83.5 -55.5t-111.5 -21.5q-246 0 -246 278v739h-204z" />
<glyph unicode="u" horiz-adv-x="1146" d="M164 342v682h31v-678q0 -161 87.5 -250.5t245.5 -89.5q85 0 157.5 26.5t120.5 68.5t82 95t49 105t15 100v623h31v-1024h-31v279q-35 -131 -151.5 -215t-278.5 -84q-171 0 -264.5 94.5t-93.5 267.5z" />
<glyph unicode="v" horiz-adv-x="983" d="M45 1024h35l412 -985l411 985h35l-430 -1024h-33z" />
<glyph unicode="w" horiz-adv-x="1617" d="M72 1024h32l324 -981l365 981h32l365 -981l323 981h33l-340 -1024h-30l-367 981l-367 -981h-30z" />
<glyph unicode="x" horiz-adv-x="985" d="M39 0l418 532l-404 492h37l389 -469l369 469h37l-383 -487l442 -537h-37l-426 514l-2 -2l-403 -512h-37z" />
<glyph unicode="y" horiz-adv-x="983" d="M-8 -375l18 25q42 -64 142 -64q85 0 141.5 46t105.5 167l82 199l-436 1026h35l381 -903l37 -86l32 86l373 903h35l-510 -1231q-54 -131 -117 -182t-161 -51q-114 0 -158 65z" />
<glyph unicode="z" horiz-adv-x="966" d="M57 0l785 995h-779v29h838l-784 -997h794v-27h-854z" />
<glyph unicode="{" horiz-adv-x="528" d="M16 571v27q109 0 171.5 51.5t62.5 141.5v495q0 107 63.5 168.5t173.5 61.5v-27q-96 0 -151 -54.5t-55 -148.5v-495q0 -77 -42 -131t-118 -74q76 -22 118 -76t42 -131v-498q0 -94 54.5 -147t151.5 -53v-29q-110 0 -173.5 61t-63.5 168v500q0 89 -62.5 139.5t-171.5 50.5z " />
<glyph unicode="|" horiz-adv-x="339" d="M156 -344v1839h28v-1839h-28z" />
<glyph unicode="}" horiz-adv-x="528" d="M41 -319q97 0 152 53t55 147v498q0 77 42 131t118 76q-76 20 -118 74t-42 131v495q0 94 -55.5 148.5t-151.5 54.5v27q110 0 174 -61.5t64 -168.5v-495q0 -91 62 -142t171 -51v-27q-109 0 -171 -50.5t-62 -139.5v-500q0 -107 -63.5 -168t-174.5 -61v29z" />
<glyph unicode="~" horiz-adv-x="978" d="M88 606q27 191 195 191q50 0 96.5 -15.5t82 -38l71 -45t78 -38t87.5 -15.5q71 0 109.5 40t52.5 124h31q-27 -191 -193 -191q-61 0 -118.5 24t-96 52t-93 52t-109.5 24q-71 0 -109.5 -40t-52.5 -124h-31z" />
<glyph unicode="&#xa1;" horiz-adv-x="354" d="M131 991q0 17 13 30t30 13q20 0 33.5 -12.5t13.5 -30.5q0 -19 -13.5 -32t-33.5 -13q-17 0 -30 13t-13 32zM162 -328v1088h31v-1088h-31z" />
<glyph unicode="&#xa2;" horiz-adv-x="1099" d="M55 512q0 212 146.5 366t357.5 166v185h29v-185q134 0 251 -63.5t189 -171.5l-22 -14q-69 103 -179 163t-239 60v-1012q127 0 236.5 59.5t179.5 161.5l24 -14q-73 -108 -189.5 -170.5t-250.5 -62.5v-185h-29v185q-211 12 -357.5 166t-146.5 366zM82 512q0 -200 139 -347 t338 -159v1012q-199 -12 -338 -159t-139 -347z" />
<glyph unicode="&#xa3;" horiz-adv-x="1173" d="M63 115q0 64 57 102.5t152 38.5q84 0 143.5 -28.5t123.5 -82.5q53 74 53 170q0 79 -28 147t-99 159h-272v28h249q-84 107 -116.5 183t-32.5 167q0 169 108 271t285 102q150 0 245 -80.5t109 -216.5l-30 -10q-10 126 -100 203.5t-224 77.5q-166 0 -264 -94.5t-98 -252.5 q0 -82 32.5 -156.5t118.5 -183.5l8 -10h432v-28h-409q66 -90 92.5 -158.5t26.5 -143.5q0 -108 -62 -192q46 -39 76 -60.5t84 -41t113 -19.5q115 0 174 58t61 169l29 3q0 -130 -70.5 -193t-193.5 -63q-50 0 -91.5 9.5t-80 31.5t-59 36.5t-60.5 46.5q-50 -59 -125 -91.5 t-162 -32.5q-89 0 -142 36.5t-53 98.5zM94 115q0 -49 45 -78t119 -29q82 0 150.5 30.5t113.5 84.5q-61 51 -116 77.5t-132 26.5q-82 0 -131 -30.5t-49 -81.5z" />
<glyph unicode="&#xa4;" horiz-adv-x="1232" d="M127 211l211 211q-84 105 -84 260q0 153 80 252l-207 207l25 24l204 -209q98 101 260 101q159 0 258 -99l209 207l21 -22l-207 -211q78 -100 78 -250q0 -158 -84 -258l213 -215l-21 -23l-213 213q-96 -96 -254 -96q-156 0 -256 94l-208 -211zM285 682q0 -161 89.5 -255.5 t241.5 -94.5q151 0 239.5 94.5t88.5 255.5q0 159 -89 253.5t-239 94.5q-152 0 -241.5 -94.5t-89.5 -253.5z" />
<glyph unicode="&#xa5;" horiz-adv-x="1161" d="M90 1352h37l453 -795h4l450 795h37l-463 -799h412v-29h-424v-223h424v-29h-424v-272h-31v272h-422v29h422v223h-422v29h410z" />
<glyph unicode="&#xa6;" horiz-adv-x="368" d="M170 -344v750h29v-750h-29zM170 745v750h29v-750h-29z" />
<glyph unicode="&#xa7;" horiz-adv-x="1095" d="M100 602q0 97 74 161.5t195 90.5q-89 38 -127.5 93t-38.5 140q0 122 97.5 203.5t272.5 81.5q292 0 357 -174l-25 -16q-55 164 -332 164q-158 0 -249 -72t-91 -184q0 -114 88.5 -176t309.5 -95t309 -95t88 -179q0 -97 -75 -162t-195 -90q90 -38 129 -93.5t39 -140.5 q0 -122 -97 -203t-272 -81q-290 0 -358 174l26 16q55 -164 332 -164q158 0 248 72t90 184q0 114 -87.5 176t-307.5 95q-222 33 -311 95t-89 179zM131 602q0 -101 82.5 -156t292.5 -88q130 -21 215 -51q54 11 100.5 29.5t87.5 47t64.5 70t23.5 91.5q0 102 -81.5 156.5 t-290.5 86.5q-118 19 -217 50q-73 -14 -132.5 -41t-102 -78t-42.5 -117z" />
<glyph unicode="&#xa8;" horiz-adv-x="1128" d="M342 1270q0 18 13 29.5t32 11.5q18 0 30.5 -11.5t12.5 -29.5q0 -20 -12.5 -32.5t-30.5 -12.5q-19 0 -32 12.5t-13 32.5zM719 1270q0 18 13 29.5t32 11.5q18 0 30.5 -11.5t12.5 -29.5q0 -20 -12.5 -32.5t-30.5 -12.5q-19 0 -32 12.5t-13 32.5z" />
<glyph unicode="&#xa9;" horiz-adv-x="1630" d="M127 676q0 142 55 271t148 222t222 148t271 55q189 0 349.5 -93t254 -253.5t93.5 -349.5t-93.5 -349.5t-254 -253.5t-349.5 -93q-142 0 -271 55t-222 148t-148 222t-55 271zM154 676q0 -136 53 -260t142.5 -214t213.5 -143t260 -53q181 0 335.5 90t244.5 244.5t90 335.5 t-90 335.5t-244.5 244.5t-335.5 90q-136 0 -260 -53t-213.5 -143t-142.5 -214t-53 -260zM360 670q0 192 136 328.5t329 136.5q118 0 220.5 -56t166.5 -153l-24 -17q-60 91 -155.5 143t-207.5 52q-180 0 -307 -127t-127 -307t127 -307t307 -127q109 0 204.5 51t156.5 143 l24 -18q-65 -95 -166.5 -151t-218.5 -56q-193 0 -329 136.5t-136 328.5z" />
<glyph unicode="&#xaa;" horiz-adv-x="720" d="M70 834q0 78 62 126.5t194 71.5l233 41v66q0 92 -55.5 144t-157.5 52q-94 0 -151.5 -36.5t-85.5 -112.5l-27 10q26 80 94 123t170 43q114 0 180 -56.5t66 -162.5v-359q0 -88 65 -88q35 0 54 13v-29q-21 -12 -56 -12q-96 0 -96 120v19q-26 -66 -104.5 -102.5t-165.5 -36.5 q-101 0 -160 43.5t-59 122.5zM78 457v28h608v-28h-608zM98 831q0 -63 51 -99t140 -36q59 0 119 20.5t105.5 67t45.5 107.5v153l-219 -38q-126 -23 -184 -66t-58 -109z" />
<glyph unicode="&#xab;" horiz-adv-x="774" d="M94 543l295 401h41l-297 -401l297 -402h-41zM334 543l295 401h41l-297 -401l297 -402h-41z" />
<glyph unicode="&#xac;" horiz-adv-x="1236" d="M158 633v29h921v-300h-30v271h-891z" />
<glyph unicode="&#xad;" horiz-adv-x="851" d="M139 539v30h574v-30h-574z" />
<glyph unicode="&#xae;" horiz-adv-x="1622" d="M115 676q0 142 55 271t148 222t222 148t271 55t271 -55t222 -148t148 -222t55 -271t-55 -271t-148 -222t-222 -148t-271 -55t-271 55t-222 148t-148 222t-55 271zM141 676q0 -181 90 -335.5t244.5 -244.5t335.5 -90t335.5 90t244.5 244.5t90 335.5t-90 335.5 t-244.5 244.5t-335.5 90t-335.5 -90t-244.5 -244.5t-90 -335.5zM545 293v758h317q244 0 244 -207q0 -190 -209 -205l221 -346h-35l-223 344h-282v-344h-33zM578 664h284q215 3 215 180q0 178 -215 178h-284v-358z" />
<glyph unicode="&#xaf;" horiz-adv-x="1128" d="M270 1239v29h588v-29h-588z" />
<glyph unicode="&#xb0;" horiz-adv-x="894" d="M209 1135q0 97 70 166t170 69q98 0 166.5 -69t68.5 -166t-68.5 -166.5t-166.5 -69.5q-99 0 -169.5 69.5t-70.5 166.5zM238 1135q0 -86 61.5 -147.5t149.5 -61.5q86 0 147 61.5t61 147.5t-61 147t-147 61q-88 0 -149.5 -61t-61.5 -147z" />
<glyph unicode="&#xb1;" horiz-adv-x="1236" d="M158 0v27h921v-27h-921zM158 737v27h446v510h31v-510h444v-27h-444v-522h-31v522h-446z" />
<glyph unicode="&#xb2;" horiz-adv-x="595" d="M41 680l2 2q220 208 284 277q163 172 179 281q2 14 2 28q0 99 -56 158t-145 59q-98 0 -161 -66t-66 -170l-27 6q8 116 76.5 185t177.5 69q100 0 165 -65t65 -176q0 -56 -24 -111.5t-78 -120.5t-112 -123.5t-154 -150.5q-38 -36 -58 -55h28h408v-25z" />
<glyph unicode="&#xb3;" horiz-adv-x="626" d="M29 856l24 16q20 -82 79.5 -129t162.5 -47q97 0 158 53.5t61 145.5q0 86 -54 134t-155 48h-51v29h51q88 0 138.5 53t50.5 131q0 87 -53.5 138t-147.5 51q-86 0 -142 -41.5t-71 -110.5l-27 14q22 74 86 119t152 45q110 0 171.5 -60t61.5 -155q0 -153 -149 -196v-4 q78 -9 124 -63.5t46 -129.5q0 -103 -72 -165t-182 -62q-104 0 -170.5 49t-91.5 137z" />
<glyph unicode="&#xb4;" horiz-adv-x="1128" d="M606 1194l178 301h33l-180 -301h-31z" />
<glyph unicode="&#xb5;" horiz-adv-x="1120" d="M152 -430v1454h30v-678q0 -160 91.5 -250t242.5 -90q178 0 299 116.5t123 276.5v625h31v-1024h-31v272q-36 -129 -152 -210.5t-276 -81.5q-117 0 -204.5 57.5t-123.5 161.5v-629h-30z" />
<glyph unicode="&#xb6;" horiz-adv-x="1052" />
<glyph unicode="&#xb7;" horiz-adv-x="393" d="M139 739q0 23 16.5 39.5t41.5 16.5q23 0 39 -16.5t16 -39.5q0 -25 -16 -41t-39 -16q-25 0 -41.5 16t-16.5 41z" />
<glyph unicode="&#xb8;" horiz-adv-x="1128" d="M408 -328l14 25q38 -48 79.5 -66t98.5 -18q66 0 108 39.5t42 103.5q0 68 -48.5 123.5t-181.5 126.5h41q122 -58 169.5 -115.5t47.5 -132.5q0 -76 -50 -124t-130 -48q-63 0 -109 19.5t-81 66.5z" />
<glyph unicode="&#xb9;" horiz-adv-x="395" d="M23 1323l229 172h22v-813h-28v637q0 45 4 135l-209 -151z" />
<glyph unicode="&#xba;" horiz-adv-x="724" d="M78 1016q0 180 68 263t216 83t216.5 -83t68.5 -263t-68.5 -263t-216.5 -83t-216 83t-68 263zM90 457v28h545v-28h-545zM109 1016q0 -164 61 -241t192 -77q130 0 191 77t61 241t-61 241.5t-191 77.5t-191.5 -77.5t-61.5 -241.5z" />
<glyph unicode="&#xbb;" horiz-adv-x="765" d="M94 141l297 402l-297 401h41l295 -401l-295 -402h-41zM336 141l297 402l-297 401h41l295 -401l-295 -402h-41z" />
<glyph unicode="&#xbc;" horiz-adv-x="1142" d="M23 1190l229 172h22v-813h-28v637q0 45 4 135l-209 -152zM264 0l547 1352h37l-547 -1352h-37zM551 248l450 563v-535h62v-28h-62v-256h-28v256h-422zM610 276h363v453zM1001 811l5 6h-5v-6z" />
<glyph unicode="&#xbd;" horiz-adv-x="1323" d="M23 1190l229 172h22v-813h-28v637q0 45 4 135l-209 -152zM264 0l547 1352h37l-547 -1352h-37zM768 -10l2 2q220 208 284 277q163 172 179 281q2 14 2 28q0 99 -56 158t-145 59q-98 0 -161 -66t-66 -170l-27 6q8 116 76.5 185t177.5 69q100 0 165 -65t65 -176 q0 -56 -21.5 -109.5t-84 -126.5t-108 -119.5t-158.5 -154.5q-35 -34 -54 -52h28h408v-24z" />
<glyph unicode="&#xbe;" horiz-adv-x="1372" d="M29 723l24 16q20 -82 79.5 -129t162.5 -47q97 0 158 53.5t61 145.5q0 86 -54 134t-155 48h-51v29h51q88 0 138.5 53t50.5 131q0 87 -53.5 138t-147.5 51q-86 0 -142 -41.5t-71 -110.5l-27 14q22 74 86 119t152 45q110 0 171.5 -60t61.5 -155q0 -153 -149 -196v-5 q78 -9 124 -63t46 -129q0 -103 -72 -165t-182 -62q-104 0 -170.5 49t-91.5 137zM496 0l546 1352h37l-547 -1352h-36zM780 248l451 563v-535h61v-28h-61v-256h-29v256h-422zM840 276h362v453zM1231 811l4 6h-4v-6z" />
<glyph unicode="&#xbf;" horiz-adv-x="958" d="M33 92q0 186 128.5 318t311.5 137v239h33v-268h-21q-175 0 -298.5 -124t-123.5 -302q0 -175 123.5 -298.5t298.5 -123.5q119 0 216.5 58t154.5 157l25 -18q-60 -103 -165.5 -165t-230.5 -62q-187 0 -319.5 132t-132.5 320zM432 979q0 25 16 41t39 16q25 0 41.5 -16 t16.5 -41q0 -23 -16.5 -39t-41.5 -16q-23 0 -39 16t-16 39z" />
<glyph unicode="&#xc0;" d="M25 0l557 1352h34l558 -1352h-33l-195 471h-694l-195 -471h-32zM264 498h670l-299 725l-35 94l-35 -92zM406 1825h30l154 -303h-31z" />
<glyph unicode="&#xc1;" d="M25 0l557 1352h34l558 -1352h-33l-195 471h-694l-195 -471h-32zM264 498h670l-299 725l-35 94l-35 -92zM598 1522l154 303h30l-153 -303h-31z" />
<glyph unicode="&#xc2;" d="M25 0l557 1352h34l558 -1352h-33l-195 471h-694l-195 -471h-32zM264 498h670l-299 725l-35 94l-35 -92zM358 1522l224 290h39l223 -290h-35l-209 264l-209 -264h-33z" />
<glyph unicode="&#xc3;" d="M25 0l557 1352h34l558 -1352h-33l-195 471h-694l-195 -471h-32zM264 498h670l-299 725l-35 94l-35 -92zM279 1552q18 89 58.5 130.5t115.5 41.5q44 0 78.5 -14.5t57 -35t43.5 -41.5t51.5 -35.5t68.5 -14.5q66 0 96.5 34t46.5 109h31q-18 -89 -58.5 -130.5t-115.5 -41.5 q-45 0 -79.5 14.5t-57 35.5t-43.5 42t-51.5 35.5t-69.5 14.5q-66 0 -96 -34t-46 -110h-30z" />
<glyph unicode="&#xc4;" d="M25 0l557 1352h34l558 -1352h-33l-195 471h-694l-195 -471h-32zM264 498h670l-299 725l-35 94l-35 -92zM375 1597q0 18 13 29.5t32 11.5q18 0 30.5 -11.5t12.5 -29.5q0 -20 -12.5 -32.5t-30.5 -12.5q-19 0 -32 12.5t-13 32.5zM752 1597q0 18 13 29.5t32 11.5 q18 0 30.5 -11.5t12.5 -29.5q0 -20 -12.5 -32.5t-30.5 -12.5q-19 0 -32 12.5t-13 32.5z" />
<glyph unicode="&#xc5;" d="M25 0l546 1325q-54 9 -86 46.5t-32 94.5q0 64 40.5 103t106.5 39q65 0 105 -39t40 -103q0 -57 -32 -95.5t-86 -45.5l547 -1325h-33l-195 471h-694l-195 -471h-32zM264 498h670l-299 725l-35 94l-35 -92zM485 1466q0 -52 31 -83t84 -31t84 31t31 83t-31.5 83.5t-83.5 31.5 t-83.5 -31.5t-31.5 -83.5z" />
<glyph unicode="&#xc6;" horiz-adv-x="1812" d="M-16 0l862 1352h872v-27h-790v-625h633v-28h-633v-645h823v-27h-854v520h-541l-327 -520h-45zM375 549h522v776h-35z" />
<glyph unicode="&#xc7;" horiz-adv-x="1521" d="M102 676q0 193 95 356.5t258.5 258.5t355.5 95q164 0 307 -69.5t242 -190.5l-25 -20q-96 116 -231.5 182t-292.5 66q-138 0 -263.5 -53.5t-215.5 -144t-143.5 -216t-53.5 -264.5t53.5 -264.5t143.5 -216t215.5 -144t263.5 -53.5q157 0 292.5 66t231.5 182l25 -21 q-98 -122 -241.5 -191t-307.5 -69h-14q95 -52 133.5 -104.5t38.5 -120.5q0 -76 -50.5 -124t-130.5 -48q-63 0 -109 19.5t-81 66.5l14 24q37 -48 79.5 -66t99.5 -18q66 0 107.5 40t41.5 104t-41.5 115.5t-153.5 113.5q-179 16 -326 114t-232 255.5t-85 339.5z" />
<glyph unicode="&#xc8;" horiz-adv-x="1196" d="M164 0v1352h893v-27h-862v-663h782v-27h-782v-608h897v-27h-928zM496 1825h30l154 -303h-31z" />
<glyph unicode="&#xc9;" horiz-adv-x="1196" d="M164 0v1352h893v-27h-862v-663h782v-27h-782v-608h897v-27h-928zM627 1522l153 303h31l-154 -303h-30z" />
<glyph unicode="&#xca;" horiz-adv-x="1196" d="M164 0v1352h893v-27h-862v-663h782v-27h-782v-608h897v-27h-928zM369 1522l223 290h39l223 -290h-35l-209 264l-209 -264h-32z" />
<glyph unicode="&#xcb;" horiz-adv-x="1196" d="M164 0v1352h893v-27h-862v-663h782v-27h-782v-608h897v-27h-928zM385 1597q0 18 13 29.5t32 11.5q18 0 30.5 -11.5t12.5 -29.5q0 -20 -12.5 -32.5t-30.5 -12.5q-19 0 -32 12.5t-13 32.5zM762 1597q0 18 13 29.5t32 11.5q18 0 30.5 -11.5t12.5 -29.5q0 -20 -12.5 -32.5 t-30.5 -12.5q-19 0 -32 12.5t-13 32.5z" />
<glyph unicode="&#xcc;" horiz-adv-x="481" d="M47 1825h31l153 -303h-30zM225 0v1352h31v-1352h-31z" />
<glyph unicode="&#xcd;" horiz-adv-x="481" d="M225 0v1352h31v-1352h-31zM240 1522l153 303h31l-154 -303h-30z" />
<glyph unicode="&#xce;" horiz-adv-x="481" d="M0 1522l223 290h39l223 -290h-34l-209 264l-209 -264h-33zM225 0v1352h31v-1352h-31z" />
<glyph unicode="&#xcf;" horiz-adv-x="436" d="M53 1597q0 20 12.5 31.5t32.5 11.5q43 0 43 -43q0 -20 -11.5 -32.5t-31.5 -12.5t-32.5 12.5t-12.5 32.5zM225 0v1352h31v-1352h-31zM295 1597q0 20 12 31.5t31 11.5q20 0 32.5 -11.5t12.5 -31.5t-12.5 -32.5t-32.5 -12.5q-19 0 -31 12.5t-12 32.5z" />
<glyph unicode="&#xd0;" horiz-adv-x="1415" d="M10 670v28h191v654h477q160 0 288 -50.5t209.5 -139.5t124.5 -207.5t43 -258.5q0 -149 -43 -275.5t-124.5 -220.5t-209.5 -147t-288 -53h-477v670h-191zM231 27h447q152 0 274 51.5t200 142t119.5 212t41.5 263.5q0 132 -41.5 246t-119.5 199.5t-200 134.5t-274 49h-447 v-627h443v-28h-443v-643z" />
<glyph unicode="&#xd1;" horiz-adv-x="1341" d="M164 0v1352h43l891 -1243l51 -78l-2 114v1207h31v-1352h-41l-891 1243l-53 78l2 -115v-1206h-31zM362 1552q18 89 59 130.5t116 41.5q44 0 78.5 -14.5t57 -35t43.5 -41.5t51.5 -35.5t68.5 -14.5q66 0 96.5 34t46.5 109h31q-18 -89 -58.5 -130.5t-115.5 -41.5 q-45 0 -79.5 14.5t-57 35.5t-43.5 42t-51.5 35.5t-69.5 14.5q-66 0 -96 -34t-46 -110h-31z" />
<glyph unicode="&#xd2;" horiz-adv-x="1622" d="M102 676q0 193 95 356.5t258.5 258.5t355.5 95q146 0 277.5 -56t226.5 -151t151 -226.5t56 -276.5t-56.5 -276.5t-151.5 -226.5t-226.5 -151.5t-276.5 -56.5t-276.5 56.5t-226 151.5t-150.5 226.5t-56 276.5zM133 676q0 -138 54 -263.5t145 -216.5t216.5 -144.5 t262.5 -53.5q138 0 263.5 53.5t216.5 144.5t144.5 216.5t53.5 263.5t-53.5 263.5t-144.5 216.5t-216.5 144.5t-263.5 53.5q-137 0 -262.5 -53.5t-216.5 -144.5t-145 -216.5t-54 -263.5zM674 1825h31l153 -303h-31z" />
<glyph unicode="&#xd3;" horiz-adv-x="1622" d="M102 676q0 193 95 356.5t258.5 258.5t355.5 95q146 0 277.5 -56t226.5 -151t151 -226.5t56 -276.5t-56.5 -276.5t-151.5 -226.5t-226.5 -151.5t-276.5 -56.5t-276.5 56.5t-226 151.5t-150.5 226.5t-56 276.5zM133 676q0 -138 54 -263.5t145 -216.5t216.5 -144.5 t262.5 -53.5q138 0 263.5 53.5t216.5 144.5t144.5 216.5t53.5 263.5t-53.5 263.5t-144.5 216.5t-216.5 144.5t-263.5 53.5q-137 0 -262.5 -53.5t-216.5 -144.5t-145 -216.5t-54 -263.5zM807 1522l154 303h30l-153 -303h-31z" />
<glyph unicode="&#xd4;" horiz-adv-x="1622" d="M102 676q0 193 95 356.5t258.5 258.5t355.5 95q146 0 277.5 -56t226.5 -151t151 -226.5t56 -276.5t-56.5 -276.5t-151.5 -226.5t-226.5 -151.5t-276.5 -56.5t-276.5 56.5t-226 151.5t-150.5 226.5t-56 276.5zM133 676q0 -138 54 -263.5t145 -216.5t216.5 -144.5 t262.5 -53.5q138 0 263.5 53.5t216.5 144.5t144.5 216.5t53.5 263.5t-53.5 263.5t-144.5 216.5t-216.5 144.5t-263.5 53.5q-137 0 -262.5 -53.5t-216.5 -144.5t-145 -216.5t-54 -263.5zM565 1522l223 290h39l224 -290h-35l-209 264l-209 -264h-33z" />
<glyph unicode="&#xd5;" horiz-adv-x="1622" d="M102 676q0 193 95 356.5t258.5 258.5t355.5 95q146 0 277.5 -56t226.5 -151t151 -226.5t56 -276.5t-56.5 -276.5t-151.5 -226.5t-226.5 -151.5t-276.5 -56.5t-276.5 56.5t-226 151.5t-150.5 226.5t-56 276.5zM133 676q0 -138 54 -263.5t145 -216.5t216.5 -144.5 t262.5 -53.5q138 0 263.5 53.5t216.5 144.5t144.5 216.5t53.5 263.5t-53.5 263.5t-144.5 216.5t-216.5 144.5t-263.5 53.5q-137 0 -262.5 -53.5t-216.5 -144.5t-145 -216.5t-54 -263.5zM485 1552q18 89 58.5 130.5t115.5 41.5q44 0 78.5 -14.5t57 -35t43.5 -41.5t51.5 -35.5 t68.5 -14.5q67 0 97.5 34t46.5 109h31q-18 -89 -59 -130.5t-116 -41.5q-45 0 -79.5 14.5t-57 35.5t-43.5 42t-51.5 35.5t-69.5 14.5q-66 0 -95.5 -34t-45.5 -110h-31z" />
<glyph unicode="&#xd6;" horiz-adv-x="1622" d="M102 676q0 193 95 356.5t258.5 258.5t355.5 95q146 0 277.5 -56t226.5 -151t151 -226.5t56 -276.5t-56.5 -276.5t-151.5 -226.5t-226.5 -151.5t-276.5 -56.5t-276.5 56.5t-226 151.5t-150.5 226.5t-56 276.5zM133 676q0 -138 54 -263.5t145 -216.5t216.5 -144.5 t262.5 -53.5q138 0 263.5 53.5t216.5 144.5t144.5 216.5t53.5 263.5t-53.5 263.5t-144.5 216.5t-216.5 144.5t-263.5 53.5q-137 0 -262.5 -53.5t-216.5 -144.5t-145 -216.5t-54 -263.5zM584 1597q0 18 13 29.5t32 11.5q18 0 30.5 -11.5t12.5 -29.5q0 -20 -12.5 -32.5 t-30.5 -12.5q-19 0 -32 12.5t-13 32.5zM961 1597q0 18 13 29.5t32 11.5q18 0 30.5 -11.5t12.5 -29.5q0 -20 -12.5 -32.5t-30.5 -12.5q-19 0 -32 12.5t-13 32.5z" />
<glyph unicode="&#xd7;" horiz-adv-x="1236" d="M256 301l25 -27l337 338l338 -338l27 27l-338 338l338 338l-27 24l-338 -337l-337 337l-25 -24l362 -365l27 27l-27 25z" />
<glyph unicode="&#xd8;" horiz-adv-x="1460" d="M102 676q0 193 95 356.5t258.5 258.5t355.5 95q222 0 399 -122l107 149h41l-123 -166q133 -98 210 -248.5t77 -322.5q0 -145 -56.5 -276.5t-151.5 -226.5t-226.5 -151.5t-276.5 -56.5q-229 0 -410 129l-112 -155h-41l129 176q-128 98 -201.5 245t-73.5 316zM133 676 q0 -160 70 -300.5t192 -234.5l4 4l785 1082l8 10q-172 117 -381 117q-137 0 -262.5 -53.5t-216.5 -144.5t-145 -216.5t-54 -263.5zM420 123q173 -125 391 -125q138 0 263.5 53.5t216.5 144.5t144.5 216.5t53.5 263.5q0 164 -72.5 307t-199.5 238l-9 -11z" />
<glyph unicode="&#xd9;" horiz-adv-x="1347" d="M164 481v871h31v-871q0 -226 126 -350.5t353 -124.5q225 0 352 124.5t127 350.5v871h31v-871q0 -240 -134.5 -370.5t-375.5 -130.5t-375.5 130.5t-134.5 370.5zM543 1825h30l154 -303h-31z" />
<glyph unicode="&#xda;" horiz-adv-x="1347" d="M164 481v871h31v-871q0 -226 126 -350.5t353 -124.5q225 0 352 124.5t127 350.5v871h31v-871q0 -240 -134.5 -370.5t-375.5 -130.5t-375.5 130.5t-134.5 370.5zM672 1522l153 303h31l-154 -303h-30z" />
<glyph unicode="&#xdb;" horiz-adv-x="1347" d="M164 481v871h31v-871q0 -226 126 -350.5t353 -124.5q225 0 352 124.5t127 350.5v871h31v-871q0 -240 -134.5 -370.5t-375.5 -130.5t-375.5 130.5t-134.5 370.5zM432 1522l223 290h39l224 -290h-35l-209 264l-209 -264h-33z" />
<glyph unicode="&#xdc;" horiz-adv-x="1347" d="M164 481v871h31v-871q0 -226 126 -350.5t353 -124.5q225 0 352 124.5t127 350.5v871h31v-871q0 -240 -134.5 -370.5t-375.5 -130.5t-375.5 130.5t-134.5 370.5zM451 1597q0 18 13 29.5t32 11.5q18 0 30.5 -11.5t12.5 -29.5q0 -20 -12.5 -32.5t-30.5 -12.5q-19 0 -32 12.5 t-13 32.5zM827 1597q0 18 13 29.5t32 11.5q18 0 30.5 -11.5t12.5 -29.5q0 -20 -12.5 -32.5t-30.5 -12.5q-19 0 -32 12.5t-13 32.5z" />
<glyph unicode="&#xdd;" horiz-adv-x="1105" d="M61 1352h37l264 -463l191 -332l453 795h36l-475 -828v-524h-30v524zM551 1522l154 303h30l-153 -303h-31z" />
<glyph unicode="&#xde;" horiz-adv-x="1159" d="M203 0v1352h30v-277h369q235 0 355 -96t120 -283t-120 -283t-355 -96h-369v-317h-30zM233 344h388q212 0 319 89t107 263t-107.5 263.5t-318.5 89.5h-388v-705z" />
<glyph unicode="&#xdf;" horiz-adv-x="1134" d="M174 0v1057q0 221 108 334.5t318 113.5q174 0 274.5 -94t100.5 -262q0 -162 -90.5 -265.5t-225.5 -109.5v-2q179 -9 277 -113.5t98 -285.5q0 -179 -104.5 -286t-274.5 -107q-143 0 -215 90l19 18q73 -84 196 -84q157 0 253 100.5t96 268.5q0 190 -110 287.5t-296 97.5 h-90v28h90q154 0 250 98t96 269q0 153 -92 239.5t-252 86.5q-195 0 -296 -113t-101 -332v-1034h-29z" />
<glyph unicode="&#xe0;" horiz-adv-x="1120" d="M113 262q0 122 89.5 191.5t295.5 101.5q166 28 407 59v99q0 142 -98 221.5t-260 79.5q-305 0 -389 -240l-25 21q92 249 414 249q177 0 283 -86.5t106 -244.5v-557v-156h-33v168l2 35q-28 -72 -105 -124.5t-166.5 -75.5t-180.5 -23q-159 0 -249.5 81t-90.5 201zM143 262 q0 -106 85 -181t235 -75q64 0 137 18t143 52.5t116 95.5t46 137v275l-389 -54q-203 -34 -288 -98.5t-85 -169.5zM389 1497h33l178 -301h-31z" />
<glyph unicode="&#xe1;" horiz-adv-x="1120" d="M113 262q0 122 89.5 191.5t295.5 101.5q166 28 407 59v99q0 142 -98 221.5t-260 79.5q-305 0 -389 -240l-25 21q92 249 414 249q177 0 283 -86.5t106 -244.5v-557v-156h-33v168l2 35q-28 -72 -105 -124.5t-166.5 -75.5t-180.5 -23q-159 0 -249.5 81t-90.5 201zM143 262 q0 -106 85 -181t235 -75q64 0 137 18t143 52.5t116 95.5t46 137v275l-389 -54q-203 -34 -288 -98.5t-85 -169.5zM563 1196l178 301h33l-180 -301h-31z" />
<glyph unicode="&#xe2;" horiz-adv-x="1120" d="M113 262q0 122 89.5 191.5t295.5 101.5q166 28 407 59v99q0 142 -98 221.5t-260 79.5q-305 0 -389 -240l-25 21q92 249 414 249q177 0 283 -86.5t106 -244.5v-557v-156h-33v168l2 35q-28 -72 -105 -124.5t-166.5 -75.5t-180.5 -23q-159 0 -249.5 81t-90.5 201zM143 262 q0 -106 85 -181t235 -75q64 0 137 18t143 52.5t116 95.5t46 137v275l-389 -54q-203 -34 -288 -98.5t-85 -169.5zM332 1196l221 291h35l221 -291h-35l-205 264l-204 -264h-33z" />
<glyph unicode="&#xe3;" horiz-adv-x="1120" d="M113 262q0 122 89.5 191.5t295.5 101.5q166 28 407 59v99q0 142 -98 221.5t-260 79.5q-305 0 -389 -240l-25 21q92 249 414 249q177 0 283 -86.5t106 -244.5v-557v-156h-33v168l2 35q-28 -72 -105 -124.5t-166.5 -75.5t-180.5 -23q-159 0 -249.5 81t-90.5 201zM143 262 q0 -106 85 -181t235 -75q64 0 137 18t143 52.5t116 95.5t46 137v275l-389 -54q-203 -34 -288 -98.5t-85 -169.5zM256 1227q18 89 58.5 130.5t115.5 41.5q44 0 78.5 -14.5t57 -35.5t43.5 -42t51.5 -35.5t68.5 -14.5q66 0 96.5 34.5t46.5 109.5h31q-18 -89 -58.5 -130.5 t-115.5 -41.5q-45 0 -79.5 14.5t-57 35.5t-43.5 41.5t-51.5 35t-69.5 14.5q-66 0 -95.5 -33.5t-45.5 -109.5h-31z" />
<glyph unicode="&#xe4;" horiz-adv-x="1120" d="M113 262q0 122 89.5 191.5t295.5 101.5q166 28 407 59v99q0 142 -98 221.5t-260 79.5q-305 0 -389 -240l-25 21q92 249 414 249q177 0 283 -86.5t106 -244.5v-557v-156h-33v168l2 35q-28 -72 -105 -124.5t-166.5 -75.5t-180.5 -23q-159 0 -249.5 81t-90.5 201zM143 262 q0 -106 85 -181t235 -75q64 0 137 18t143 52.5t116 95.5t46 137v275l-389 -54q-203 -34 -288 -98.5t-85 -169.5zM354 1272q0 18 13 29.5t32 11.5q18 0 30.5 -11.5t12.5 -29.5q0 -20 -12.5 -32.5t-30.5 -12.5q-19 0 -32 12.5t-13 32.5zM731 1272q0 18 13 29.5t32 11.5 q18 0 30.5 -11.5t12.5 -29.5q0 -20 -12.5 -32.5t-30.5 -12.5q-19 0 -32 12.5t-13 32.5z" />
<glyph unicode="&#xe5;" horiz-adv-x="1120" d="M113 262q0 122 89.5 191.5t295.5 101.5q166 28 407 59v99q0 142 -98 221.5t-260 79.5q-305 0 -389 -240l-25 21q92 249 414 249q177 0 283 -86.5t106 -244.5v-557v-156h-33v168l2 35q-28 -72 -105 -124.5t-166.5 -75.5t-180.5 -23q-159 0 -249.5 81t-90.5 201zM143 262 q0 -106 85 -181t235 -75q64 0 137 18t143 52.5t116 95.5t46 137v275l-389 -54q-203 -34 -288 -98.5t-85 -169.5zM350 1341q0 66 48.5 114t117.5 48q67 0 115.5 -48t48.5 -114q0 -67 -48 -115t-116 -48q-69 0 -117.5 47.5t-48.5 115.5zM383 1341q0 -54 39 -93.5t94 -39.5 q54 0 93.5 39.5t39.5 93.5t-39.5 93t-93.5 39q-55 0 -94 -39t-39 -93z" />
<glyph unicode="&#xe6;" horiz-adv-x="1773" d="M94 221q0 259 377 297l363 37v152q0 150 -84 230.5t-242 80.5q-142 0 -232 -59.5t-137 -184.5l-24 21q47 127 143 188t250 61q167 0 258.5 -78t99.5 -223q44 145 146 223t248 78q204 0 309.5 -125.5t105.5 -377.5v-15h-809v-100q20 -198 125 -309t271 -111q276 0 370 232 l25 -15q-101 -243 -395 -243q-157 0 -263.5 90t-144.5 254q-9 -92 -52 -161.5t-107 -108t-134.5 -56.5t-146.5 -18q-146 0 -233 62t-87 179zM125 221q0 -105 83 -160t216 -55q52 0 104.5 10.5t108.5 38t99 68.5t70.5 109t27.5 153v127v12l-340 -30q-193 -18 -281 -90 t-88 -183zM866 557h783q-5 232 -101 346.5t-288 114.5q-166 0 -270 -111t-124 -309v-41z" />
<glyph unicode="&#xe7;" horiz-adv-x="1146" d="M92 512q0 144 71 266.5t194 194t268 71.5q134 0 251 -63.5t189 -171.5l-23 -16q-69 102 -178.5 161.5t-236.5 59.5q-137 0 -252.5 -67.5t-182.5 -183t-67 -251.5t67 -251.5t182.5 -183t252.5 -67.5q127 0 235.5 59t177.5 160l25 -16q-69 -100 -175.5 -162t-230.5 -69 q93 -52 130.5 -104.5t37.5 -119.5q0 -76 -50 -124t-130 -48q-63 0 -109 19.5t-81 66.5l14 25q38 -48 79.5 -66t98.5 -18q66 0 108 39.5t42 103.5q0 62 -39.5 113t-143.5 111q-143 2 -263.5 73.5t-190.5 193.5t-70 265z" />
<glyph unicode="&#xe8;" d="M123 512q0 245 140 388.5t360 143.5q207 0 340 -146t133 -394v-15h-942q7 -223 139.5 -353t339.5 -130q132 0 245.5 62.5t163.5 169.5l25 -15q-53 -112 -172.5 -177.5t-261.5 -65.5q-226 0 -368 143t-142 389zM154 520h915q-4 230 -127 364t-319 134q-204 0 -335 -134 t-134 -364zM434 1495h33l178 -301h-31z" />
<glyph unicode="&#xe9;" d="M123 512q0 245 140 388.5t360 143.5q207 0 340 -146t133 -394v-15h-942q7 -223 139.5 -353t339.5 -130q132 0 245.5 62.5t163.5 169.5l25 -15q-53 -112 -172.5 -177.5t-261.5 -65.5q-226 0 -368 143t-142 389zM154 520h915q-4 230 -127 364t-319 134q-204 0 -335 -134 t-134 -364zM610 1194l178 301h33l-180 -301h-31z" />
<glyph unicode="&#xea;" d="M123 512q0 245 140 388.5t360 143.5q207 0 340 -146t133 -394v-15h-942q7 -223 139.5 -353t339.5 -130q132 0 245.5 62.5t163.5 169.5l25 -15q-53 -112 -172.5 -177.5t-261.5 -65.5q-226 0 -368 143t-142 389zM154 520h915q-4 230 -127 364t-319 134q-204 0 -335 -134 t-134 -364zM377 1194l221 291h35l221 -291h-35l-205 264l-204 -264h-33z" />
<glyph unicode="&#xeb;" d="M123 512q0 245 140 388.5t360 143.5q207 0 340 -146t133 -394v-15h-942q7 -223 139.5 -353t339.5 -130q132 0 245.5 62.5t163.5 169.5l25 -15q-53 -112 -172.5 -177.5t-261.5 -65.5q-226 0 -368 143t-142 389zM154 520h915q-4 230 -127 364t-319 134q-204 0 -335 -134 t-134 -364zM399 1270q0 18 13 29.5t32 11.5q18 0 30.5 -11.5t12.5 -29.5q0 -20 -12.5 -32.5t-30.5 -12.5q-19 0 -32 12.5t-13 32.5zM776 1270q0 18 13 29.5t32 11.5q18 0 30.5 -11.5t12.5 -29.5q0 -20 -12.5 -32.5t-30.5 -12.5q-19 0 -32 12.5t-13 32.5z" />
<glyph unicode="&#xec;" horiz-adv-x="378" d="M2 1495h33l178 -301h-31zM174 0v1024h31v-1024h-31z" />
<glyph unicode="&#xed;" horiz-adv-x="378" d="M174 0v1024h31v-1024h-31zM176 1194l178 301h33l-180 -301h-31z" />
<glyph unicode="&#xee;" horiz-adv-x="378" d="M-57 1194l221 291h35l221 -291h-35l-205 264l-205 -264h-32zM174 0v1024h31v-1024h-31z" />
<glyph unicode="&#xef;" horiz-adv-x="378" d="M43 1270q0 20 12.5 31.5t32.5 11.5t32.5 -11.5t12.5 -31.5t-12.5 -32.5t-32.5 -12.5t-32.5 12.5t-12.5 32.5zM174 0v1024h31v-1024h-31zM248 1270q0 20 12 31.5t31 11.5q20 0 32.5 -11.5t12.5 -31.5t-12.5 -32.5t-32.5 -12.5q-19 0 -31 12.5t-12 32.5z" />
<glyph unicode="&#xf0;" horiz-adv-x="1181" d="M104 485q0 231 128 369.5t339 138.5q173 0 289.5 -82.5t155.5 -228.5q-20 343 -193 567l-356 -73l-8 26l344 72q-131 155 -311 221h61q174 -80 285 -213l239 51l8 -26l-229 -50q191 -249 191 -677q0 -298 -121 -449t-338 -151q-223 0 -353.5 137.5t-130.5 367.5zM135 485 q0 -220 121 -349.5t332 -129.5q199 0 312 135t122 385l-4 60q-20 161 -137.5 271t-309.5 110q-198 0 -317 -132t-119 -350z" />
<glyph unicode="&#xf1;" horiz-adv-x="1187" d="M174 0v1024h31v-279q35 130 152 214.5t276 84.5q178 0 279.5 -97t101.5 -273v-674h-31v670q0 163 -96 255.5t-260 92.5q-178 0 -300 -119.5t-122 -282.5v-616h-31zM279 1225q18 89 58.5 130.5t115.5 41.5q44 0 78.5 -14.5t57 -35.5t43.5 -42t51.5 -35.5t68.5 -14.5 q66 0 96.5 34.5t46.5 109.5h31q-18 -89 -58.5 -130.5t-115.5 -41.5q-45 0 -79.5 14.5t-57 35.5t-43.5 41.5t-51.5 35t-69.5 14.5q-66 0 -96 -34t-46 -109h-30z" />
<glyph unicode="&#xf2;" horiz-adv-x="1269" d="M102 512q0 144 71 266.5t194 194t268 71.5q144 0 266.5 -71.5t194 -194t71.5 -266.5t-71.5 -266.5t-194 -194t-266.5 -71.5q-145 0 -268 71.5t-194 194t-71 266.5zM133 512q0 -134 68 -249t183.5 -183t250.5 -68t250.5 68t183.5 183t68 249t-68 249.5t-183.5 184 t-250.5 68.5t-250.5 -68.5t-183.5 -184t-68 -249.5zM446 1495h33l178 -301h-30z" />
<glyph unicode="&#xf3;" horiz-adv-x="1269" d="M102 512q0 144 71 266.5t194 194t268 71.5q144 0 266.5 -71.5t194 -194t71.5 -266.5t-71.5 -266.5t-194 -194t-266.5 -71.5q-145 0 -268 71.5t-194 194t-71 266.5zM133 512q0 -134 68 -249t183.5 -183t250.5 -68t250.5 68t183.5 183t68 249t-68 249.5t-183.5 184 t-250.5 68.5t-250.5 -68.5t-183.5 -184t-68 -249.5zM623 1194l178 301h33l-181 -301h-30z" />
<glyph unicode="&#xf4;" horiz-adv-x="1269" d="M102 512q0 144 71 266.5t194 194t268 71.5q144 0 266.5 -71.5t194 -194t71.5 -266.5t-71.5 -266.5t-194 -194t-266.5 -71.5q-145 0 -268 71.5t-194 194t-71 266.5zM133 512q0 -134 68 -249t183.5 -183t250.5 -68t250.5 68t183.5 183t68 249t-68 249.5t-183.5 184 t-250.5 68.5t-250.5 -68.5t-183.5 -184t-68 -249.5zM389 1194l221 291h35l221 -291h-35l-204 264l-205 -264h-33z" />
<glyph unicode="&#xf5;" horiz-adv-x="1269" d="M102 512q0 144 71 266.5t194 194t268 71.5q144 0 266.5 -71.5t194 -194t71.5 -266.5t-71.5 -266.5t-194 -194t-266.5 -71.5q-145 0 -268 71.5t-194 194t-71 266.5zM133 512q0 -134 68 -249t183.5 -183t250.5 -68t250.5 68t183.5 183t68 249t-68 249.5t-183.5 184 t-250.5 68.5t-250.5 -68.5t-183.5 -184t-68 -249.5zM313 1225q18 89 58.5 130.5t115.5 41.5q44 0 78.5 -14.5t57 -35.5t43.5 -42t51.5 -35.5t68.5 -14.5q66 0 97 34.5t47 109.5h31q-18 -89 -59 -130.5t-116 -41.5q-45 0 -79.5 14.5t-57 35.5t-43.5 41.5t-51.5 35t-69.5 14.5 q-66 0 -95.5 -33.5t-45.5 -109.5h-31z" />
<glyph unicode="&#xf6;" horiz-adv-x="1269" d="M102 512q0 144 71 266.5t194 194t268 71.5q144 0 266.5 -71.5t194 -194t71.5 -266.5t-71.5 -266.5t-194 -194t-266.5 -71.5q-145 0 -268 71.5t-194 194t-71 266.5zM133 512q0 -134 68 -249t183.5 -183t250.5 -68t250.5 68t183.5 183t68 249t-68 249.5t-183.5 184 t-250.5 68.5t-250.5 -68.5t-183.5 -184t-68 -249.5zM412 1270q0 18 13 29.5t32 11.5q18 0 30.5 -11.5t12.5 -29.5q0 -20 -12.5 -32.5t-30.5 -12.5q-19 0 -32 12.5t-13 32.5zM788 1270q0 18 13.5 29.5t32.5 11.5q18 0 30.5 -11.5t12.5 -29.5q0 -20 -12.5 -32.5t-30.5 -12.5 q-19 0 -32.5 12.5t-13.5 32.5z" />
<glyph unicode="&#xf7;" horiz-adv-x="1236" d="M158 633v29h921v-29h-921zM563 272q0 23 16.5 39.5t41.5 16.5q23 0 39 -16.5t16 -39.5q0 -25 -16 -41t-39 -16q-25 0 -41.5 16t-16.5 41zM563 1028q0 23 16.5 39t41.5 16q23 0 39 -16t16 -39q0 -25 -16 -41t-39 -16q-25 0 -41.5 16t-16.5 41z" />
<glyph unicode="&#xf8;" horiz-adv-x="1167" d="M104 512q0 248 128.5 390t351.5 142q195 0 317 -110l119 151h43l-137 -174q135 -141 135 -399q0 -249 -127 -390.5t-350 -141.5q-192 0 -314 104l-114 -145h-43l133 167q-142 145 -142 406zM135 512q0 -249 129 -381h2l51 68l568 712q-119 107 -301 107 q-209 0 -329 -135.5t-120 -370.5zM289 109q112 -103 295 -103q207 0 326.5 135.5t119.5 370.5q0 243 -125 377h-2l-37 -49z" />
<glyph unicode="&#xf9;" horiz-adv-x="1146" d="M164 342v682h31v-678q0 -161 87.5 -250.5t245.5 -89.5q85 0 157.5 26.5t120.5 68.5t82 95t49 105t15 100v623h31v-1024h-31v279q-35 -131 -151.5 -215t-278.5 -84q-171 0 -264.5 94.5t-93.5 267.5zM387 1495h33l178 -301h-31z" />
<glyph unicode="&#xfa;" horiz-adv-x="1146" d="M164 342v682h31v-678q0 -161 87.5 -250.5t245.5 -89.5q85 0 157.5 26.5t120.5 68.5t82 95t49 105t15 100v623h31v-1024h-31v279q-35 -131 -151.5 -215t-278.5 -84q-171 0 -264.5 94.5t-93.5 267.5zM561 1194l178 301h33l-180 -301h-31z" />
<glyph unicode="&#xfb;" horiz-adv-x="1146" d="M164 342v682h31v-678q0 -161 87.5 -250.5t245.5 -89.5q85 0 157.5 26.5t120.5 68.5t82 95t49 105t15 100v623h31v-1024h-31v279q-35 -131 -151.5 -215t-278.5 -84q-171 0 -264.5 94.5t-93.5 267.5zM330 1194l221 291h35l221 -291h-35l-205 264l-205 -264h-32z" />
<glyph unicode="&#xfc;" horiz-adv-x="1146" d="M164 342v682h31v-678q0 -161 87.5 -250.5t245.5 -89.5q85 0 157.5 26.5t120.5 68.5t82 95t49 105t15 100v623h31v-1024h-31v279q-35 -131 -151.5 -215t-278.5 -84q-171 0 -264.5 94.5t-93.5 267.5zM352 1270q0 18 13 29.5t32 11.5q18 0 30.5 -11.5t12.5 -29.5 q0 -20 -12.5 -32.5t-30.5 -12.5q-19 0 -32 12.5t-13 32.5zM729 1270q0 18 13 29.5t32 11.5q18 0 30.5 -11.5t12.5 -29.5q0 -20 -12.5 -32.5t-30.5 -12.5q-19 0 -32 12.5t-13 32.5z" />
<glyph unicode="&#xfd;" horiz-adv-x="983" d="M-8 -375l18 25q42 -64 142 -64q85 0 141.5 46t105.5 167l82 199l-436 1026h35l381 -903l37 -86l32 86l373 903h35l-510 -1231q-54 -131 -117 -182t-161 -51q-114 0 -158 65zM485 1194l179 301h32l-180 -301h-31z" />
<glyph unicode="&#xfe;" d="M174 -430v1925h31v-776q40 156 149.5 240.5t270.5 84.5q221 0 345 -140.5t124 -391.5t-124 -391.5t-345 -140.5q-163 0 -272.5 85t-147.5 242v-737h-31zM205 504q0 -230 112 -364t301 -134q209 0 327 134t118 372t-118 372t-327 134q-190 0 -301.5 -134.5t-111.5 -365.5 v-14z" />
<glyph unicode="&#xff;" horiz-adv-x="983" d="M-8 -375l18 25q42 -64 142 -64q85 0 141.5 46t105.5 167l82 199l-436 1026h35l381 -903l37 -86l32 86l373 903h35l-510 -1231q-54 -131 -117 -182t-161 -51q-114 0 -158 65zM274 1270q0 18 13 29.5t32 11.5q18 0 30.5 -11.5t12.5 -29.5q0 -20 -12.5 -32.5t-30.5 -12.5 q-19 0 -32 12.5t-13 32.5zM651 1270q0 18 13 29.5t32 11.5q18 0 30.5 -11.5t12.5 -29.5q0 -20 -12.5 -32.5t-30.5 -12.5q-19 0 -32 12.5t-13 32.5z" />
<glyph unicode="&#x152;" horiz-adv-x="2150" d="M115 676q0 320 156.5 508t418.5 188q219 0 347.5 -100t174.5 -303v383h842v-27h-811v-620h664v-29h-664v-649h846v-27h-877v383q-46 -203 -174.5 -303t-347.5 -100q-262 0 -418.5 188t-156.5 508zM145 676q0 -307 148.5 -488.5t396.5 -181.5q274 0 398 163t124 507 t-124 507t-398 163q-248 0 -396.5 -181.5t-148.5 -488.5z" />
<glyph unicode="&#x153;" horiz-adv-x="2019" d="M104 512q0 248 128.5 390t351.5 142q184 0 303.5 -97t156.5 -275q37 178 152 275t293 97q203 0 317.5 -143.5t114.5 -396.5v-15h-858q6 -227 120.5 -355t315.5 -128q131 0 234.5 61.5t154.5 170.5l25 -15q-54 -114 -164 -178.5t-250 -64.5q-182 0 -300 97t-155 275 q-37 -178 -156.5 -275t-303.5 -97q-223 0 -351.5 142t-128.5 390zM135 512q0 -235 120 -370.5t329 -135.5q207 0 326.5 135.5t119.5 370.5t-119.5 370.5t-326.5 135.5q-209 0 -329 -135.5t-120 -370.5zM1063 520h831q-5 235 -109.5 366.5t-295.5 131.5q-199 0 -311.5 -132 t-114.5 -366z" />
<glyph unicode="&#x178;" horiz-adv-x="1105" d="M61 1352h37l264 -463l191 -332l453 795h36l-475 -828v-524h-30v524zM328 1597q0 18 13 29.5t32 11.5q18 0 30.5 -11.5t12.5 -29.5q0 -20 -12.5 -32.5t-30.5 -12.5q-19 0 -32 12.5t-13 32.5zM705 1597q0 18 13 29.5t32 11.5q18 0 30.5 -11.5t12.5 -29.5q0 -20 -12.5 -32.5 t-30.5 -12.5q-19 0 -32 12.5t-13 32.5z" />
<glyph unicode="&#x2c6;" horiz-adv-x="1128" d="M317 1194l222 291h34l222 -291h-35l-205 264l-205 -264h-33z" />
<glyph unicode="&#x2dc;" horiz-adv-x="1128" d="M193 1225q18 89 58.5 130.5t115.5 41.5q44 0 78.5 -14.5t57 -35.5t43.5 -42t51.5 -35.5t68.5 -14.5q66 0 96.5 34.5t46.5 109.5h31q-18 -89 -58.5 -130.5t-115.5 -41.5q-45 0 -79.5 14.5t-57 35.5t-43.5 41.5t-51.5 35t-69.5 14.5q-66 0 -96 -34t-46 -109h-30z" />
<glyph unicode="&#x2000;" horiz-adv-x="912" />
<glyph unicode="&#x2001;" horiz-adv-x="1825" />
<glyph unicode="&#x2002;" horiz-adv-x="912" />
<glyph unicode="&#x2003;" horiz-adv-x="1825" />
<glyph unicode="&#x2004;" horiz-adv-x="608" />
<glyph unicode="&#x2005;" horiz-adv-x="456" />
<glyph unicode="&#x2006;" horiz-adv-x="304" />
<glyph unicode="&#x2007;" horiz-adv-x="304" />
<glyph unicode="&#x2008;" horiz-adv-x="228" />
<glyph unicode="&#x2009;" horiz-adv-x="365" />
<glyph unicode="&#x200a;" horiz-adv-x="101" />
<glyph unicode="&#x2010;" horiz-adv-x="851" d="M139 539v30h574v-30h-574z" />
<glyph unicode="&#x2011;" horiz-adv-x="851" d="M139 539v30h574v-30h-574z" />
<glyph unicode="&#x2012;" horiz-adv-x="851" d="M139 539v30h574v-30h-574z" />
<glyph unicode="&#x2013;" horiz-adv-x="1245" d="M139 537v32h969v-32h-969z" />
<glyph unicode="&#x2014;" horiz-adv-x="1921" d="M139 537v32h1643v-32h-1643z" />
<glyph unicode="&#x2018;" horiz-adv-x="352" d="M121 1159q-9 97 29 162t106 86l12 -31q-100 -37 -110 -170h8q20 0 33.5 -13.5t13.5 -33.5q0 -19 -13.5 -32t-33.5 -13q-17 0 -30.5 13t-14.5 32z" />
<glyph unicode="&#x2019;" horiz-adv-x="350" d="M94 1149q102 40 111 170h-8q-20 0 -33.5 13.5t-13.5 33.5q0 19 13.5 32t33.5 13q17 0 30 -13t15 -32q9 -97 -29.5 -162t-106.5 -86z" />
<glyph unicode="&#x201a;" horiz-adv-x="356" d="M82 -182q102 40 111 170h-9q-20 0 -33.5 13.5t-13.5 33.5q0 19 13.5 32t33.5 13q17 0 30.5 -13t14.5 -32q9 -97 -29 -162t-106 -86z" />
<glyph unicode="&#x201c;" horiz-adv-x="550" d="M121 1159q-9 97 29 162t106 86l12 -31q-100 -37 -110 -170h8q20 0 33.5 -13.5t13.5 -33.5q0 -19 -13.5 -32t-33.5 -13q-17 0 -30.5 13t-14.5 32zM319 1159q-9 97 29.5 162t106.5 86l12 -31q-101 -37 -111 -170h9q20 0 33.5 -13.5t13.5 -33.5q0 -19 -13.5 -32t-33.5 -13 q-17 0 -31 13t-15 32z" />
<glyph unicode="&#x201d;" horiz-adv-x="548" d="M94 1149q102 40 111 170h-8q-20 0 -33.5 13.5t-13.5 33.5q0 19 13.5 32t33.5 13q17 0 30 -13t15 -32q9 -97 -29.5 -162t-106.5 -86zM293 1149q100 40 110 170h-8q-20 0 -33.5 13.5t-13.5 33.5q0 19 13.5 32t33.5 13q17 0 30 -13t15 -32q9 -97 -29 -162t-106 -86z" />
<glyph unicode="&#x201e;" horiz-adv-x="555" d="M82 -182q102 40 111 170h-9q-20 0 -33.5 13.5t-13.5 33.5q0 19 13.5 32t33.5 13q17 0 30.5 -13t14.5 -32q9 -97 -29 -162t-106 -86zM281 -182q100 40 110 170h-8q-20 0 -33.5 13.5t-13.5 33.5q0 19 13.5 32t33.5 13q17 0 30 -13t15 -32q9 -97 -29 -162t-106 -86z" />
<glyph unicode="&#x2022;" horiz-adv-x="880" d="M315 694q0 53 36.5 89t90.5 36q52 0 88.5 -36.5t36.5 -88.5q0 -54 -36 -90.5t-89 -36.5q-54 0 -90.5 36.5t-36.5 90.5z" />
<glyph unicode="&#x2026;" horiz-adv-x="1083" d="M127 35q0 23 16 39t41 16q23 0 39.5 -16t16.5 -39q0 -25 -16.5 -41.5t-39.5 -16.5q-25 0 -41 16.5t-16 41.5zM485 35q0 23 16.5 39t41.5 16q23 0 39 -16t16 -39q0 -25 -16 -41.5t-39 -16.5q-25 0 -41.5 16.5t-16.5 41.5zM844 35q0 23 16 39t41 16q23 0 39 -16t16 -39 q0 -25 -16 -41.5t-39 -16.5q-25 0 -41 16.5t-16 41.5z" />
<glyph unicode="&#x202f;" horiz-adv-x="365" />
<glyph unicode="&#x2039;" horiz-adv-x="532" d="M94 543l295 401h41l-297 -401l297 -402h-41z" />
<glyph unicode="&#x203a;" horiz-adv-x="532" d="M102 141l297 402l-297 401h41l295 -401l-295 -402h-41z" />
<glyph unicode="&#x205f;" horiz-adv-x="456" />
<glyph unicode="&#x20ac;" horiz-adv-x="1529" d="M23 508l22 31h191q-13 73 -13 137q0 72 15 139h-215l22 31h199q58 235 250 387.5t440 152.5q163 0 306.5 -69.5t242.5 -190.5l-25 -18q-96 116 -232 182t-292 66q-236 0 -419.5 -143.5t-240.5 -366.5h820l-21 -31h-805q-14 -63 -14 -139q0 -74 14 -137h744l-21 -31h-717 q56 -223 239.5 -367.5t420.5 -144.5q156 0 292 66t232 182l25 -19q-100 -121 -243.5 -190.5t-305.5 -69.5q-249 0 -441.5 153.5t-248.5 389.5h-221z" />
<glyph unicode="&#x2122;" horiz-adv-x="1544" d="M63 1323v29h555v-29h-260v-647h-32v647h-263zM741 676v676h33l277 -625l12 -29l8 29l279 625h30v-676h-30v553l6 69h-2l-17 -49l-260 -573h-33l-258 573l-16 49h-2l4 -69v-553h-31z" />
<glyph unicode="&#x25fc;" horiz-adv-x="1024" d="M0 0v1024h1024v-1024h-1024z" />
</font>
</defs>
</svg>
