<?xml version="1.0" standalone="no"?>
<!DOCTYPE svg PUBLIC "-//W3C//DTD SVG 1.1//EN" "http://www.w3.org/Graphics/SVG/1.1/DTD/svg11.dtd" >
<svg xmlns="http://www.w3.org/2000/svg" xmlns:xlink="http://www.w3.org/1999/xlink" version="1.1">
<metadata></metadata>
<defs>
<font id="human_sanslight" horiz-adv-x="1212" >
<font-face units-per-em="2048" ascent="1556" descent="-492" />
<missing-glyph horiz-adv-x="548" />
<glyph unicode="&#xfb01;" horiz-adv-x="1230" d="M61 926v98h205v172q0 143 80.5 226t231.5 83q95 0 161 -41v-106q-79 45 -153 45q-99 0 -153 -55.5t-54 -161.5v-162h356v-98h-356v-926h-113v926h-205zM913 1309q0 40 28.5 69t68.5 29t69 -29t29 -69t-29 -68.5t-69 -28.5t-68.5 28.5t-28.5 68.5zM954 0v1024h113v-1024 h-113z" />
<glyph unicode="&#xfb02;" horiz-adv-x="1181" d="M61 926v98h205v172q0 143 80.5 226t231.5 83q95 0 161 -41v-106q-79 45 -153 45q-99 0 -153 -55.5t-54 -161.5v-162h356v-98h-356v-926h-113v926h-205zM936 0v1495h111v-1495h-111z" />
<glyph horiz-adv-x="0" />
<glyph horiz-adv-x="682" />
<glyph unicode=" "  horiz-adv-x="548" />
<glyph unicode="&#x09;" horiz-adv-x="548" />
<glyph unicode="&#xa0;" horiz-adv-x="548" />
<glyph unicode="!" horiz-adv-x="460" d="M131 82q0 42 29 71t71 29q41 0 71 -29.5t30 -70.5t-30 -70.5t-71 -29.5q-42 0 -71 29t-29 71zM172 1352h117l-10 -1002h-99z" />
<glyph unicode="&#x22;" horiz-adv-x="671" d="M143 969v436h123l-33 -436h-90zM428 969v436h123l-33 -436h-90z" />
<glyph unicode="#" horiz-adv-x="1280" d="M47 403v89h281l61 382h-264v89h276l64 389h98l-63 -389h364l64 389h98l-63 -389h268v-89h-283l-61 -382h266v-89h-281l-65 -403h-96l65 403h-364l-66 -403h-98l65 403h-266zM426 492h365l61 382h-365z" />
<glyph unicode="$" horiz-adv-x="1087" d="M90 309q0 45 10 103h99q-12 -49 -9 -93q3 -87 78.5 -159t208.5 -86v571q-194 60 -278 143.5t-84 204.5q0 163 98.5 264.5t263.5 116.5v131h123v-133q162 -19 261 -122.5t93 -260.5h-100q1 122 -67 196t-187 89v-559q209 -63 297 -154t88 -219q0 -149 -104 -250.5 t-281 -120.5v-129h-123v129q-173 17 -277.5 114t-109.5 224zM223 1004q0 -85 57 -142.5t197 -107.5v520q-119 -12 -186.5 -81.5t-67.5 -188.5zM600 72q132 13 204.5 84.5t72.5 181.5q0 84 -64 151.5t-213 118.5v-536z" />
<glyph unicode="%" horiz-adv-x="1679" d="M61 1004q0 150 106.5 256t256.5 106q149 0 254.5 -106.5t105.5 -255.5t-105.5 -255t-254.5 -106q-151 0 -257 106t-106 255zM152 1004q0 -113 80 -193t192 -80t192 80t80 193q0 112 -80 192t-192 80t-192 -80t-80 -192zM344 0l883 1352h110l-882 -1352h-111zM911 350 q0 149 106 255t257 106q149 0 254.5 -106t105.5 -255q0 -151 -105.5 -256.5t-254.5 -105.5q-151 0 -257 105.5t-106 256.5zM1001 350q0 -113 79.5 -192.5t193.5 -79.5q112 0 192 80t80 192q0 111 -80 191t-192 80q-113 0 -193 -80t-80 -191z" />
<glyph unicode="&#x26;" horiz-adv-x="1351" d="M102 465q0 146 82.5 266.5t214.5 177.5q-55 98 -55 234q0 114 82 196t197 82t195.5 -81.5t80.5 -196.5h-96q0 75 -53 127.5t-127 52.5q-75 0 -128 -52.5t-53 -127.5q0 -115 58 -209q139 -217 420 -670q55 93 55 201v246h246v-97h-148v-149q0 -161 -98 -293l47 -76h227 v-96h-284l-60 98q-137 -118 -317 -118q-131 0 -243 65t-177.5 176.5t-65.5 243.5zM201 465q0 -161 114 -274t273 -113q154 0 264 104q-325 526 -399 643q-111 -42 -181.5 -140.5t-70.5 -219.5z" />
<glyph unicode="'" horiz-adv-x="387" d="M143 969v436h123l-33 -436h-90z" />
<glyph unicode="(" horiz-adv-x="600" d="M104 633q0 271 95 514.5t268 435.5l84 -78q-158 -175 -245 -399.5t-87 -472.5q0 -251 90 -479t252 -404l-84 -80q-177 194 -275 442t-98 521z" />
<glyph unicode=")" horiz-adv-x="600" d="M39 -250q162 176 252 404t90 479q0 248 -87 472.5t-245 399.5l84 78q173 -192 268 -435.5t95 -514.5q0 -273 -98 -521t-275 -442z" />
<glyph unicode="*" horiz-adv-x="1097" d="M90 1128l29 89l383 -121v399h94v-397l383 119l27 -89l-379 -127l233 -323l-76 -55l-235 323l-238 -323l-73 55l233 326z" />
<glyph unicode="+" d="M117 596v104h436v441h106v-441h437v-104h-437v-449h-106v449h-436z" />
<glyph unicode="," horiz-adv-x="442" d="M57 -168q79 25 118 62t52 90h-2q-42 0 -71 29t-29 71q0 41 29.5 69.5t70.5 28.5q45 0 73 -27.5t32 -76.5q10 -122 -57 -207.5t-183 -114.5z" />
<glyph unicode="-" horiz-adv-x="944" d="M154 483v117h637v-117h-637z" />
<glyph unicode="." horiz-adv-x="442" d="M117 84q0 43 30.5 72.5t73.5 29.5t74 -30t31 -72q0 -44 -31 -74t-74 -30t-73.5 30t-30.5 74z" />
<glyph unicode="/" horiz-adv-x="946" d="M47 -143l741 1638h111l-741 -1638h-111z" />
<glyph unicode="0" horiz-adv-x="1191" d="M100 676q0 174 25.5 300t83 216.5t153.5 135t234 44.5q268 0 382 -172t114 -524t-114 -524t-382 -172q-138 0 -234 44.5t-153.5 135t-83 216.5t-25.5 300zM217 676q0 -151 18 -257t60.5 -184.5t117 -116.5t183.5 -38q108 0 182.5 38t117 116.5t61 185t18.5 256.5 t-18.5 256.5t-61 185t-117 116.5t-182.5 38q-109 0 -183.5 -38t-117 -116.5t-60.5 -184.5t-18 -257z" />
<glyph unicode="1" horiz-adv-x="624" d="M55 1139l310 213h112v-1352h-112v1221l-250 -172z" />
<glyph unicode="2" horiz-adv-x="1036" d="M90 963q21 186 140 297.5t307 111.5q190 0 300.5 -111.5t110.5 -287.5q0 -57 -14 -113t-35 -104t-65 -107.5t-82.5 -105.5t-110 -117t-126.5 -122.5t-152 -140.5q-42 -39 -64 -59h133h520v-104h-843l2 88q67 62 162.5 148t147.5 133t121.5 113t106 106.5t79 94.5t62 96 t33 90.5t13.5 97.5q0 132 -81.5 216.5t-219.5 84.5q-147 0 -241 -98t-104 -265z" />
<glyph unicode="3" horiz-adv-x="1120" d="M98 297l105 57q26 -129 111.5 -199.5t232.5 -70.5q155 0 244.5 78t89.5 211q0 126 -83.5 191t-242.5 65h-162v106h162q141 0 216 68.5t77 191.5q2 128 -74 200.5t-215 72.5q-127 0 -207 -61t-110 -169l-107 49q48 134 159 209.5t269 75.5q186 0 294 -100t108 -258 q0 -133 -74.5 -227.5t-183.5 -102.5v-2q129 -4 208.5 -97t79.5 -227q0 -168 -125 -273t-327 -105q-173 0 -288.5 83t-156.5 234z" />
<glyph unicode="4" horiz-adv-x="978" d="M39 381v82l653 889h127v-869h90v-102h-90v-381h-112v381h-668zM188 483h519v576l2 129z" />
<glyph unicode="5" horiz-adv-x="1013" d="M94 184l90 60q47 -73 124.5 -116.5t168.5 -43.5q146 0 248 101.5t102 246.5q0 146 -102 248t-248 102q-93 0 -172.5 -44t-122.5 -117l-88 59l96 672h641v-113h-544l-62 -424q116 76 252 76q190 0 324.5 -135t134.5 -324t-134.5 -323t-324.5 -134q-119 0 -220.5 56.5 t-162.5 152.5z" />
<glyph unicode="6" horiz-adv-x="1091" d="M94 432q0 129 68 240l342 682h127l-252 -498q81 35 172 35q190 0 324.5 -135t134.5 -324t-134.5 -323t-324.5 -134q-189 0 -323 134t-134 323zM203 432q0 -145 101.5 -246.5t246.5 -101.5q146 0 248 101.5t102 246.5q0 146 -102 248t-248 102q-145 0 -246.5 -102 t-101.5 -248z" />
<glyph unicode="7" horiz-adv-x="968" d="M55 1239v113h881l-608 -1352h-121l557 1239h-709z" />
<glyph unicode="8" horiz-adv-x="1042" d="M82 356q0 123 74 221.5t200 133.5v2q-104 34 -159.5 121.5t-55.5 193.5q0 146 102 244t277 98t278 -98t103 -244q0 -68 -22.5 -129.5t-72 -112t-120.5 -73.5v-2q131 -37 201.5 -136t70.5 -219q0 -160 -119.5 -268t-318.5 -108q-198 0 -318 108t-120 268zM199 356 q0 -125 92.5 -203.5t228.5 -78.5q138 0 231 78.5t93 203.5q0 123 -90.5 204t-233.5 81q-141 0 -231 -81t-90 -204zM258 1022q0 -107 72.5 -178.5t189.5 -71.5t190.5 71.5t73.5 178.5q0 112 -76.5 183t-187.5 71q-110 0 -186 -71t-76 -183z" />
<glyph unicode="9" horiz-adv-x="1044" d="M63 924q0 189 134.5 322.5t324.5 133.5q189 0 323 -133.5t134 -322.5q0 -107 -45 -199h2l-367 -725h-127l250 496q-84 -33 -170 -33q-190 0 -324.5 135t-134.5 326zM172 922q0 -146 102 -248.5t248 -102.5q145 0 247.5 102.5t102.5 248.5t-102.5 248t-247.5 102 q-146 0 -248 -102t-102 -248z" />
<glyph unicode=":" horiz-adv-x="497" d="M145 84q0 42 31 72t74 30t73.5 -29.5t30.5 -72.5q0 -44 -30.5 -74t-73.5 -30t-74 30t-31 74zM145 940q0 42 31 72t74 30t73.5 -29.5t30.5 -72.5q0 -44 -30.5 -74t-73.5 -30t-74 30t-31 74z" />
<glyph unicode=";" horiz-adv-x="497" d="M88 -168q79 25 118 62t52 90h-2q-42 0 -71 29t-29 71q0 41 29.5 69.5t70.5 28.5q44 0 72 -27.5t32 -76.5q10 -123 -56.5 -208t-182.5 -114zM154 936q0 44 30.5 74t73.5 30t73.5 -30t30.5 -74q0 -43 -30.5 -72.5t-73.5 -29.5t-73.5 29.5t-30.5 72.5z" />
<glyph unicode="&#x3c;" d="M150 547v133l946 465v-117l-848 -414l848 -415v-117z" />
<glyph unicode="=" d="M137 371v104h938v-104h-938zM137 782v107h938v-107h-938z" />
<glyph unicode="&#x3e;" d="M117 82v117l848 415l-848 414v117l946 -465v-133z" />
<glyph unicode="?" horiz-adv-x="1019" d="M94 1143q56 107 160.5 171t230.5 64q120 0 221.5 -58.5t160.5 -159.5t59 -220q0 -171 -114 -297t-282 -143v-199h-100v295l43 2h6h2q143 5 243.5 103t100.5 239t-99.5 240.5t-240.5 99.5q-97 0 -178 -50.5t-123 -133.5zM375 84q0 43 30.5 72.5t73.5 29.5t74 -30t31 -72 q0 -44 -31 -74t-74 -30t-73.5 30t-30.5 74z" />
<glyph unicode="@" horiz-adv-x="1959" d="M113 485q0 187 65 348t181.5 277t284.5 182t366 66q142 0 267.5 -33.5t229.5 -103t178.5 -169t116 -237.5t41.5 -303q0 -231 -81 -374.5t-216 -143.5q-138 0 -170 149v21q-50 -107 -155.5 -169.5t-241.5 -62.5q-214 0 -358 148t-144 383t144.5 382.5t357.5 147.5 q134 0 239.5 -62t157.5 -167v156h131v-709q0 -117 56 -117q41 0 83 58t70.5 162.5t28.5 224.5q0 171 -56.5 308.5t-156.5 228t-235.5 138.5t-295.5 48q-234 0 -414 -100t-277 -276.5t-97 -400.5q0 -169 57.5 -315t158.5 -249.5t244.5 -162.5t309.5 -59q195 0 365 82l36 -90 q-181 -88 -395 -88q-250 0 -450 113.5t-313 315t-113 453.5zM584 463q0 -191 114 -309.5t283 -118.5q152 0 261.5 91t133.5 247v180q-24 154 -134.5 246t-262.5 92q-168 0 -281.5 -119t-113.5 -309z" />
<glyph unicode="A" horiz-adv-x="1267" d="M29 0l538 1352h133l537 -1352h-119l-149 377h-672l-150 -377h-118zM338 481h590l-242 611l-53 151h-2l-49 -147z" />
<glyph unicode="B" horiz-adv-x="1286" d="M201 0v1352h487q220 0 331 -93.5t111 -259.5q0 -128 -62.5 -208t-180.5 -105v-2q133 -23 206.5 -109.5t73.5 -214.5q0 -168 -125 -264t-354 -96h-487zM313 104h398q168 0 253 67.5t85 195.5t-85 195t-253 67h-398v-525zM313 733h377q324 0 324 256q0 258 -324 258h-377 v-514z" />
<glyph unicode="C" horiz-adv-x="1441" d="M90 678q0 189 93.5 350t254 254.5t348.5 93.5q162 0 303 -68.5t238 -189.5l-84 -69q-85 101 -203.5 158t-253.5 57q-159 0 -293.5 -78.5t-212 -214t-77.5 -295.5t77.5 -295.5t212 -214t293.5 -78.5q136 0 254 58t203 161l86 -71q-99 -122 -240 -191.5t-303 -69.5 q-189 0 -349 94t-253.5 256t-93.5 353z" />
<glyph unicode="D" horiz-adv-x="1458" d="M195 0v1352h491q318 0 496 -179.5t178 -488.5q0 -318 -178 -501t-496 -183h-491zM307 104h387q259 0 403 157.5t144 422.5q0 257 -144 410t-403 153h-387v-1143z" />
<glyph unicode="E" horiz-adv-x="1239" d="M186 0v1352h928v-105h-815v-532h723v-109h-723v-502h848v-104h-961z" />
<glyph unicode="F" horiz-adv-x="1177" d="M193 0v1352h923v-105h-811v-532h721v-109h-721v-606h-112z" />
<glyph unicode="G" horiz-adv-x="1540" d="M82 678q0 142 54.5 271t147.5 222t221.5 148t270.5 55q176 0 326.5 -80.5t247.5 -220.5l-93 -67q-79 119 -205.5 187.5t-275.5 68.5q-159 0 -292 -78t-209 -212.5t-76 -295.5t76 -295t209 -211.5t292 -77.5q183 0 330 101.5t213 265.5h-428v116h575q-23 -168 -120.5 -304 t-247.5 -213.5t-322 -77.5q-142 0 -270.5 55t-221.5 148t-147.5 222.5t-54.5 272.5z" />
<glyph unicode="H" horiz-adv-x="1447" d="M201 0v1352h112v-637h822v637h112v-1352h-112v606h-822v-606h-112z" />
<glyph unicode="I" horiz-adv-x="532" d="M207 0v1352h119v-1352h-119z" />
<glyph unicode="J" horiz-adv-x="1060" d="M68 459l108 -2q0 -18 4 -64q12 -146 83 -227.5t198 -81.5q277 0 313 305q6 41 6 90v873h113v-897q0 -223 -116 -349t-312 -126q-177 0 -278.5 110t-116.5 305q-2 20 -2 64z" />
<glyph unicode="K" horiz-adv-x="1249" d="M201 0v1352h112v-748l731 748h150l-535 -547l547 -805h-137l-489 721l-267 -272v-449h-112z" />
<glyph unicode="L" horiz-adv-x="1153" d="M193 0v1352h112v-1248h803v-104h-915z" />
<glyph unicode="M" horiz-adv-x="1636" d="M184 0v1352h172l389 -990l72 -229h2l74 227l389 992h170v-1352h-109v981l13 264l-488 -1245h-100l-485 1245h-2l12 -264v-981h-109z" />
<glyph unicode="N" horiz-adv-x="1415" d="M186 0v1352h142l690 -1033l108 -196h2l-6 178v1051h107v-1352h-142l-690 1036l-108 193l6 -178v-1051h-109z" />
<glyph unicode="O" horiz-adv-x="1564" d="M84 678q0 142 55.5 271t149 222.5t222.5 149t271 55.5q189 0 350 -93.5t255 -254.5t94 -350q0 -191 -94 -353t-255 -256t-350 -94t-350 94t-254.5 256t-93.5 353zM193 676q0 -159 79 -295t215 -215.5t295 -79.5t294.5 79.5t214.5 215.5t79 295q0 160 -79 296.5 t-214.5 216t-294.5 79.5t-295 -79.5t-215 -216t-79 -296.5z" />
<glyph unicode="P" horiz-adv-x="1265" d="M201 0v1352h504q201 0 335 -125t134 -307q0 -88 -35.5 -170t-97 -143t-149.5 -97.5t-187 -36.5h-392v-473h-112zM313 578h389q156 0 254.5 101t98.5 241t-97.5 233.5t-255.5 93.5h-389v-669z" />
<glyph unicode="Q" horiz-adv-x="1585" d="M84 678q0 142 55.5 271t149 222.5t222.5 149t271 55.5q189 0 350 -93.5t255 -254.5t94 -350q0 -154 -63 -290.5t-173 -235.5l187 -254l-95 -68l-184 252q-167 -107 -371 -107q-189 0 -350 94t-254.5 256t-93.5 353zM193 676q0 -159 79 -295t215 -215.5t295 -79.5 t294.5 79.5t214.5 215.5t79 295q0 160 -79 296.5t-214.5 216t-294.5 79.5t-295 -79.5t-215 -216t-79 -296.5z" />
<glyph unicode="R" horiz-adv-x="1308" d="M201 0v1352h504q201 0 335 -125t134 -307q0 -133 -77.5 -246t-205.5 -166l332 -508h-133l-316 477q-46 -4 -69 -4h-392v-473h-112zM313 578h389q156 0 254.5 101t98.5 241t-97.5 233.5t-255.5 93.5h-389v-669z" />
<glyph unicode="S" horiz-adv-x="1134" d="M117 309q0 45 10 103h96q-7 -28 -7 -61q0 -13 1 -27q5 -101 96.5 -172.5t253.5 -71.5q159 0 246.5 68t87.5 184q0 54 -21.5 98t-50.5 72t-81.5 54.5t-89 39.5t-99.5 33q-88 27 -146 49.5t-114 54t-88 67.5t-51 86.5t-19 114.5q0 169 115.5 271t300.5 102q187 0 307 -104 q117 -101 117 -270v-11h-102q1 137 -83.5 211t-232.5 74q-144 0 -227.5 -68.5t-83.5 -195.5q0 -28 5 -52t12 -43.5t22.5 -37t30 -31t40.5 -28t47 -24.5t57.5 -23.5t64.5 -23t75 -24.5q51 -16 81 -27t78 -31.5t78 -39t65.5 -48t55.5 -62t34 -76.5t14 -95q0 -162 -122 -263 t-325 -101q-202 0 -323.5 97t-124.5 232z" />
<glyph unicode="T" horiz-adv-x="1198" d="M53 1247v105h1092v-105h-490v-1247h-112v1247h-490z" />
<glyph unicode="U" horiz-adv-x="1372" d="M164 496v856h112v-832q0 -436 410 -436t410 436v832h112v-856q0 -252 -135 -384t-387 -132q-251 0 -386.5 132t-135.5 384z" />
<glyph unicode="V" horiz-adv-x="1245" d="M37 1352h121l391 -1028l74 -218l73 218l391 1028h121l-520 -1352h-131z" />
<glyph unicode="W" horiz-adv-x="1902" d="M51 1352h121l369 -1235l348 1235h129l348 -1237l371 1237h114l-417 -1352h-140l-268 936l-74 283h-2l-76 -283l-266 -936h-139z" />
<glyph unicode="X" horiz-adv-x="1155" d="M35 0l481 694l-440 658h135l377 -568l383 568h125l-447 -656l463 -696h-133l-404 602l-407 -602h-133z" />
<glyph unicode="Y" horiz-adv-x="1120" d="M25 1352h133l262 -463l141 -246l402 709h135l-482 -826v-526h-112v526z" />
<glyph unicode="Z" horiz-adv-x="1196" d="M66 0l874 1247h-801v105h998l-881 -1252h850v-100h-1040z" />
<glyph unicode="[" horiz-adv-x="624" d="M158 -344v1839h428v-98h-324v-1643h324v-98h-428z" />
<glyph unicode="\" horiz-adv-x="800" d="M-98 1495h110l742 -1638h-111z" />
<glyph unicode="]" horiz-adv-x="624" d="M39 -246h323v1643h-323v98h428v-1839h-428v98z" />
<glyph unicode="^" horiz-adv-x="1099" d="M51 727l445 768h110l443 -768h-115l-383 672l-383 -672h-117z" />
<glyph unicode="_" horiz-adv-x="1046" d="M-12 -199h1071v-104h-1071v104z" />
<glyph unicode="`" horiz-adv-x="1038" d="M270 1520h117l174 -326h-110z" />
<glyph unicode="a" horiz-adv-x="1128" d="M106 258q0 226 310 297q133 37 446 57v78q0 117 -82.5 185.5t-214.5 68.5q-270 0 -356 -211l-84 62q43 120 156.5 184.5t283.5 64.5q181 0 295.5 -88.5t114.5 -253.5v-524v-188h-113v168q-53 -83 -167 -130.5t-232 -47.5q-162 0 -259.5 75t-97.5 203zM219 258 q0 -79 70.5 -131.5t183.5 -52.5q62 0 129 17.5t126 48.5t96.5 81t37.5 109v188q-290 -20 -407 -49q-236 -49 -236 -211z" />
<glyph unicode="b" horiz-adv-x="1234" d="M143 0v1495h113v-678q52 102 157.5 163.5t237.5 61.5q213 0 357.5 -147.5t144.5 -382.5t-143.5 -382.5t-358.5 -147.5q-142 0 -249.5 65.5t-153.5 179.5v-227h-105zM248 502q0 -189 114.5 -303.5t286.5 -114.5q169 0 283.5 118.5t114.5 309.5q0 190 -114 309t-282 119 q-172 0 -287.5 -115.5t-115.5 -302.5v-20z" />
<glyph unicode="c" horiz-adv-x="1134" d="M86 510q0 146 71 269.5t193 195.5t266 72q138 0 258.5 -69t190.5 -185l-86 -56q-58 95 -153.5 150t-209.5 55q-178 0 -297.5 -124.5t-119.5 -305.5q0 -180 119.5 -302t297.5 -122q113 0 206 49t151 139l90 -53q-69 -112 -188 -176.5t-259 -64.5q-144 0 -266 70 t-193 191.5t-71 266.5z" />
<glyph unicode="d" horiz-adv-x="1239" d="M80 512q0 235 144.5 382.5t357.5 147.5q132 0 237.5 -61.5t157.5 -163.5v678h113v-1495h-105v227q-46 -114 -153.5 -179.5t-249.5 -65.5q-215 0 -358.5 147.5t-143.5 382.5zM186 512q0 -191 114.5 -309.5t283.5 -118.5q172 0 286.5 114.5t114.5 303.5v20 q0 187 -115.5 302.5t-287.5 115.5q-168 0 -282 -119t-114 -309z" />
<glyph unicode="e" horiz-adv-x="1179" d="M111 512q0 232 139.5 382t363.5 150q140 0 250 -67t169 -181.5t59 -254.5q0 -6 -7 -76h-862q15 -179 128 -283t274 -104q115 0 215 49.5t135 134.5l92 -51q-57 -107 -175.5 -168t-266.5 -61q-224 0 -369 143.5t-145 386.5zM223 563h760q-12 171 -113.5 277t-255.5 106 q-160 0 -268 -107.5t-123 -275.5z" />
<glyph unicode="f" horiz-adv-x="802" d="M61 926v98h205v172q0 143 80.5 226t231.5 83q95 0 161 -41v-106q-79 45 -153 45q-99 0 -153 -55.5t-54 -161.5v-162h356v-98h-356v-926h-113v926h-205z" />
<glyph unicode="g" horiz-adv-x="1148" d="M88 -166q0 76 49.5 134t134.5 83q-104 58 -104 162q0 110 102 158q-125 116 -125 282q0 158 117.5 274.5t300.5 116.5q141 0 250 -75l156 153l71 -69l-151 -154q90 -111 90 -246q0 -77 -30 -148t-83 -125.5t-132 -87t-171 -32.5q-129 0 -229 62q-60 -32 -60 -99 q0 -55 43.5 -84.5t147.5 -29.5h264q154 0 242 -64t88 -174q0 -141 -139 -226t-369 -85q-218 0 -340.5 75.5t-122.5 198.5zM193 -152q0 -90 100 -142t274 -52q185 0 287 58.5t102 150.5q0 70 -63 109.5t-188 39.5h-265q-113 0 -180 -45t-67 -119zM258 653q0 -118 85 -207.5 t220 -89.5q134 0 217.5 89t83.5 208q0 117 -84 207t-217 90q-135 0 -220 -90t-85 -207z" />
<glyph unicode="h" horiz-adv-x="1163" d="M143 0v1495h113v-664q50 104 147.5 158.5t223.5 54.5q175 0 283 -98.5t108 -281.5v-664h-113v627q0 162 -78.5 240.5t-212.5 78.5q-95 0 -175 -41.5t-131.5 -129t-51.5 -204.5v-571h-113z" />
<glyph unicode="i" horiz-adv-x="479" d="M143 1309q0 40 28.5 69t68.5 29t69 -29t29 -69t-29 -68.5t-69 -28.5t-68.5 28.5t-28.5 68.5zM184 0v1024h113v-1024h-113z" />
<glyph unicode="j" horiz-adv-x="456" d="M-12 -332q86 0 135 57.5t49 170.5v1128h113v-1139q0 -83 -25 -147t-67.5 -102t-94 -57t-108.5 -19zM129 1309q0 40 29.5 70t70.5 30q40 0 70.5 -30t30.5 -70t-30.5 -69.5t-70.5 -29.5q-41 0 -70.5 29.5t-29.5 69.5z" />
<glyph unicode="k" horiz-adv-x="1036" d="M141 0v1495h113v-1046l594 575h145l-420 -408l439 -616h-138l-382 537l-238 -232v-305h-113z" />
<glyph unicode="l" horiz-adv-x="442" d="M166 0v1495h110v-1495h-110z" />
<glyph unicode="m" horiz-adv-x="1941" d="M184 0v1024h101l6 -199q52 105 149.5 162t216.5 57q129 0 227 -59t136 -172q44 109 152 171.5t231 62.5q169 0 278 -99t109 -284v-662h-113v651q0 145 -77 220t-207 75q-146 0 -247.5 -102t-101.5 -262v-584h-112v651q0 145 -78 220t-209 75q-140 0 -244 -101.5 t-104 -271.5v-573h-113z" />
<glyph unicode="n" horiz-adv-x="1173" d="M150 0v1024h100l6 -199q50 106 149.5 162.5t225.5 56.5q177 0 285 -98.5t108 -281.5v-664h-113v627q0 161 -79 240t-214 79q-70 0 -133.5 -24.5t-113.5 -70.5t-79.5 -118t-29.5 -160v-573h-112z" />
<glyph unicode="o" horiz-adv-x="1220" d="M78 510q0 146 71 269.5t193.5 195.5t267.5 72q108 0 206.5 -42.5t170 -114.5t114 -171.5t42.5 -208.5q0 -145 -71.5 -266.5t-194.5 -191.5t-267 -70q-145 0 -267.5 70t-193.5 191.5t-71 266.5zM190 512q0 -176 122.5 -298t297.5 -122q174 0 297 122t123 298 q0 177 -123.5 302.5t-296.5 125.5q-175 0 -297.5 -125.5t-122.5 -302.5z" />
<glyph unicode="p" horiz-adv-x="1222" d="M137 -430v1454h105v-227q46 114 153.5 179.5t249.5 65.5q215 0 358.5 -147.5t143.5 -382.5t-144.5 -382.5t-357.5 -147.5q-132 0 -237.5 61.5t-157.5 163.5v-637h-113zM242 502q0 -36 6 -74l2 -4v-14q27 -149 136.5 -237.5t258.5 -88.5q168 0 281.5 119t113.5 309 q0 191 -114 309.5t-283 118.5q-172 0 -286.5 -114.5t-114.5 -303.5v-20z" />
<glyph unicode="q" horiz-adv-x="1245" d="M94 512q0 235 144.5 382.5t357.5 147.5q139 0 247 -66.5t156 -176.5v225h105v-1454h-113v639q-50 -105 -155 -166t-240 -61q-215 0 -358.5 147.5t-143.5 382.5zM201 512q0 -191 114 -309.5t283 -118.5q149 0 257.5 88t135.5 238v4l2 2q6 41 6 86v20q0 187 -115.5 302.5 t-287.5 115.5q-168 0 -281.5 -119t-113.5 -309z" />
<glyph unicode="r" horiz-adv-x="788" d="M150 0v1024h112v-188q43 100 126 154t200 54q82 0 125 -30l-27 -109q-51 35 -129 35q-117 0 -206 -105t-89 -266v-569h-112z" />
<glyph unicode="s" horiz-adv-x="1032" d="M88 217l92 62q31 -98 124.5 -149.5t225.5 -51.5q137 0 213 52t76 136q0 26 -8 48t-20.5 38t-36 30t-44 23t-56.5 19t-62.5 16t-71.5 15q-48 10 -74 16t-69 17t-68 22t-57.5 27t-51.5 35t-37 43.5t-26 55.5t-8 68q0 135 108 220t295 85q317 0 386 -249l-97 -56 q-56 207 -293 207q-126 0 -206 -54t-80 -140q0 -32 11.5 -57.5t36.5 -44.5t49.5 -32.5t66 -25t69.5 -18t76 -15.5l62.5 -12.5t60 -14t59.5 -17.5t53 -21t49 -27t39 -33.5t32 -41.5t18.5 -51t7.5 -62q0 -138 -110.5 -218.5t-299.5 -80.5q-159 0 -274 60.5t-160 176.5z" />
<glyph unicode="t" horiz-adv-x="847" d="M66 926v98h204v285h113v-285h385v-98h-385v-654q0 -93 44 -141.5t128 -48.5q86 0 182 70l41 -86q-93 -86 -237 -86q-125 0 -198 68.5t-73 207.5v670h-204z" />
<glyph unicode="u" horiz-adv-x="1144" d="M133 350v674h113v-647q0 -299 276 -299q163 0 264 103t101 261v582h112v-1024h-108v188q-52 -102 -153 -155t-236 -53q-167 0 -268 93t-101 277z" />
<glyph unicode="v" horiz-adv-x="1028" d="M31 1024h127l358 -909l363 909h120l-428 -1024h-114z" />
<glyph unicode="w" horiz-adv-x="1675" d="M61 1024h125l285 -893l311 893h113l311 -895l283 895h125l-350 -1024h-113l-317 883l-310 -883h-112z" />
<glyph unicode="x" horiz-adv-x="1026" d="M39 0l403 522l-383 502h140l315 -416l307 416h133l-374 -494l401 -530h-137l-338 442l-336 -442h-131z" />
<glyph unicode="y" horiz-adv-x="1042" d="M14 -362l43 96q50 -76 156 -76q69 0 119 40t92 144l63 158l-432 1024h129l303 -760l54 -143l59 158l291 745h121l-492 -1210q-58 -140 -128 -197t-179 -57q-130 0 -199 78z" />
<glyph unicode="z" horiz-adv-x="1019" d="M53 0l703 926h-668v98h866l-700 -930l688 4v-98h-889z" />
<glyph unicode="{" horiz-adv-x="620" d="M29 530v99q119 0 175 49.5t56 155.5v450q0 246 289 246l16 -92q-198 0 -198 -146v-469q0 -83 -39 -145.5t-111 -97.5q72 -35 111 -99t39 -147v-469q0 -146 198 -146l-16 -92q-289 0 -289 246v453q0 105 -56 154.5t-175 49.5z" />
<glyph unicode="|" horiz-adv-x="411" d="M158 -344v1839h98v-1839h-98z" />
<glyph unicode="}" horiz-adv-x="620" d="M55 -281q199 0 199 146v469q0 83 38.5 147t110.5 99q-149 73 -149 243v469q0 146 -199 146l17 92q288 0 288 -246v-450q0 -105 56.5 -155t175.5 -50v-99q-119 0 -175.5 -49.5t-56.5 -154.5v-453q0 -246 -288 -246z" />
<glyph unicode="~" horiz-adv-x="1032" d="M76 528q24 263 239 263q50 0 96.5 -15.5t81.5 -38t68 -45t71 -38t77 -15.5q112 0 141 156h106q-24 -260 -237 -260q-62 0 -119 23.5t-94 52t-86 52t-96 23.5q-114 0 -142 -158h-106z" />
<glyph unicode="&#xa1;" horiz-adv-x="444" d="M121 942q0 41 29.5 70.5t70.5 29.5q43 0 72 -29t29 -71t-29 -71t-72 -29q-41 0 -70.5 29.5t-29.5 70.5zM164 -328l10 1002h98l9 -1002h-117z" />
<glyph unicode="&#xa2;" horiz-adv-x="1112" d="M59 510q0 206 138 358t340 174v187h94v-185q132 -7 243.5 -74.5t178.5 -176.5l-84 -54q-55 88 -144 144t-194 63v-868q102 7 189 59.5t143 136.5l88 -51q-69 -108 -179.5 -174.5t-240.5 -73.5v-180h-94v182q-202 22 -340 175t-138 358zM160 512q0 -163 109 -286.5 t268 -145.5v864q-159 -22 -268 -145.5t-109 -286.5z" />
<glyph unicode="&#xa3;" horiz-adv-x="1214" d="M74 139q0 71 62.5 118.5t166.5 47.5q130 0 254 -86q23 61 23 121q0 62 -22.5 119.5t-76.5 130.5h-311v92h240q-70 90 -97.5 155t-27.5 136q0 177 116 288t301 111q157 0 256.5 -79.5t131.5 -231.5l-99 -51q-24 124 -97 192t-196 68q-142 0 -224.5 -76.5t-82.5 -204.5 q0 -66 28 -129t103 -166l8 -12h406v-92h-342q74 -126 74 -244q0 -94 -45 -176q43 -33 72 -51t74.5 -33.5t94.5 -15.5q98 0 145.5 52t49.5 161h92q0 -149 -71.5 -226t-200.5 -77q-61 0 -121 20t-95.5 41t-89.5 59q-107 -120 -286 -120q-97 0 -155 44t-58 115zM178 139 q0 -38 33 -60t88 -22q130 0 211 88q-110 74 -205 74q-61 0 -94 -21.5t-33 -58.5z" />
<glyph unicode="&#xa4;" horiz-adv-x="1286" d="M125 229l192 193q-77 110 -77 256q0 147 77 254l-192 188l74 72l188 -188q108 81 256 81q150 0 258 -84l189 191l71 -72l-188 -194q74 -107 74 -248q0 -150 -80 -260l194 -191l-71 -71l-195 190q-107 -80 -252 -80t-254 82l-190 -192zM352 678q0 -139 81 -225t210 -86 t210 86t81 225q0 136 -81 221.5t-210 85.5t-210 -85.5t-81 -221.5z" />
<glyph unicode="&#xa5;" horiz-adv-x="1204" d="M66 1352h131l403 -699h4l404 699h131l-459 -772l65 6h314v-86h-408v-181h408v-79h-408v-240h-100v240h-404v79h404v181h-404v86h312l63 -6z" />
<glyph unicode="&#xa6;" horiz-adv-x="438" d="M170 -344v745h98v-745h-98zM170 750v745h98v-745h-98z" />
<glyph unicode="&#xa7;" horiz-adv-x="1150" d="M68 596q0 92 56.5 160t147.5 108q-90 73 -90 209q0 128 112 213.5t302 85.5q291 0 399 -194l-80 -68q-86 164 -321 164q-141 0 -220 -52t-79 -139q0 -100 82 -152t293 -81q237 -33 334.5 -101.5t97.5 -197.5q0 -93 -57 -160.5t-150 -107.5q90 -73 90 -209 q0 -127 -109.5 -213t-293.5 -86q-295 0 -410 194l84 68q78 -164 324 -164q138 0 215 51.5t77 138.5q0 100 -82 152.5t-292 81.5q-237 33 -333.5 101.5t-96.5 197.5zM180 604q0 -86 76 -131.5t270 -71.5q165 -21 262 -61q201 66 201 203q0 86 -76.5 132t-271.5 70 q-165 21 -264 60q-197 -66 -197 -201z" />
<glyph unicode="&#xa8;" horiz-adv-x="1038" d="M244 1294q0 36 26 62t64 26q35 0 61.5 -26.5t26.5 -61.5q0 -37 -26.5 -63.5t-61.5 -26.5q-38 0 -64 26.5t-26 63.5zM633 1294q0 36 26 62t64 26q35 0 61.5 -26.5t26.5 -61.5q0 -37 -26.5 -63.5t-61.5 -26.5q-38 0 -64 26.5t-26 63.5z" />
<glyph unicode="&#xa9;" horiz-adv-x="1634" d="M131 678q0 187 94 347t255 253.5t349 93.5q141 0 270.5 -55.5t223 -148.5t149.5 -221.5t56 -268.5q0 -142 -56 -271t-149.5 -222.5t-223 -149t-270.5 -55.5q-188 0 -349 93.5t-255 254.5t-94 350zM231 676q0 -122 47.5 -233t127.5 -191.5t190.5 -128t232.5 -47.5 q162 0 300.5 80.5t219.5 219t81 300.5q0 163 -81 302t-219.5 219.5t-300.5 80.5q-122 0 -232.5 -47.5t-190.5 -128.5t-127.5 -192.5t-47.5 -233.5zM389 672q0 184 130 314t315 130q118 0 217 -58t159 -155l-69 -43q-48 80 -129.5 127t-177.5 47q-149 0 -255 -106t-106 -254 q0 -149 106 -256t255 -107q92 0 171 45.5t130 122.5l73 -43q-59 -95 -158 -151t-216 -56q-184 0 -314.5 130t-130.5 313z" />
<glyph unicode="&#xaa;" horiz-adv-x="733" d="M39 838q0 82 63 133t199 76l207 34v43q0 74 -46 117t-130 43q-79 0 -130.5 -32t-78.5 -103l-72 41q25 80 98.5 126t186.5 46q129 0 199.5 -60t70.5 -174v-313q0 -74 64 -74q34 0 51 11l-6 -68q-35 -14 -70 -14q-112 0 -123 110q-34 -53 -104 -81.5t-156 -28.5 q-104 0 -163.5 43.5t-59.5 124.5zM51 430v76h637v-76h-637zM137 846q0 -98 148 -98q81 0 152 43.5t71 115.5v109l-174 -35q-105 -19 -151 -49.5t-46 -85.5z" />
<glyph unicode="&#xab;" horiz-adv-x="892" d="M88 543l272 401h125l-274 -401l274 -402h-125zM403 543l273 401h125l-275 -401l275 -402h-125z" />
<glyph unicode="&#xac;" d="M123 596v104h967v-395h-113v291h-854z" />
<glyph unicode="&#xad;" horiz-adv-x="944" d="M154 483v117h637v-117h-637z" />
<glyph unicode="&#xae;" horiz-adv-x="1609" d="M106 678q0 140 56 268.5t149.5 221.5t223 148.5t270.5 55.5q188 0 349 -93.5t255 -253.5t94 -347q0 -189 -94 -350t-255 -254.5t-349 -93.5q-141 0 -270.5 55.5t-223 149t-149.5 222.5t-56 271zM207 676q0 -122 47.5 -233t127.5 -191.5t190.5 -128t232.5 -47.5t233 47.5 t191.5 128t128 191.5t47.5 233t-47.5 233.5t-128 192t-191.5 128.5t-233 48t-232.5 -47.5t-190.5 -128.5t-127.5 -192.5t-47.5 -233.5zM532 293v758h314q126 0 198 -60.5t72 -167.5q0 -91 -50 -147.5t-144 -75.5l208 -307h-108l-199 301h-194v-301h-97zM629 668h215 q176 3 176 155t-176 152h-215v-307z" />
<glyph unicode="&#xaf;" horiz-adv-x="1038" d="M186 1229v94h666v-94h-666z" />
<glyph unicode="&#xb0;" horiz-adv-x="929" d="M195 1102q0 113 79 191.5t193 78.5q111 0 189.5 -79t78.5 -191t-79 -191.5t-189 -79.5q-114 0 -193 79t-79 192zM281 1102q0 -75 55 -129.5t131 -54.5q75 0 128.5 54.5t53.5 129.5t-53.5 129.5t-128.5 54.5q-76 0 -131 -54.5t-55 -129.5z" />
<glyph unicode="&#xb1;" d="M123 0v104h967v-104h-967zM123 735v107h432v454h104v-454h431v-107h-431v-459h-104v459h-432z" />
<glyph unicode="&#xb2;" horiz-adv-x="616" d="M45 1264q14 112 85.5 178.5t184.5 66.5q115 0 181.5 -67.5t66.5 -181.5q0 -105 -78 -214t-260 -280h51h289v-84h-508v53q101 93 147 137t111 110.5t92.5 105.5t48.5 85.5t21 86.5q0 76 -42.5 121.5t-121.5 45.5q-83 0 -131.5 -54t-56.5 -144z" />
<glyph unicode="&#xb3;" horiz-adv-x="671" d="M49 872l90 33q28 -151 189 -151q77 0 127.5 38.5t50.5 112.5q0 71 -43.5 109.5t-130.5 38.5h-53v73h49q77 0 117 41.5t40 108.5q0 69 -44 107t-115 38q-65 0 -108 -34.5t-56 -98.5l-90 35q25 89 90 135.5t166 46.5q123 0 190.5 -60t67.5 -159q0 -137 -129 -194v-2 q60 -18 104.5 -68t44.5 -129q0 -103 -76.5 -163t-201.5 -60q-115 0 -187.5 55.5t-91.5 146.5z" />
<glyph unicode="&#xb4;" horiz-adv-x="1038" d="M477 1194l174 326h117l-180 -326h-111z" />
<glyph unicode="&#xb5;" horiz-adv-x="1175" d="M156 -430v1454h112v-647q0 -154 73 -226.5t204 -72.5q152 0 252 87t112 224v635h113v-1024h-94l-8 199q-52 -104 -153.5 -161.5t-242.5 -57.5q-173 0 -256 131v-541h-112z" />
<glyph unicode="&#xb6;" horiz-adv-x="1208" d="M63 897q0 205 144.5 330t380.5 125h454v-1557h-100v1462h-272v-1462h-105v647q-227 0 -364.5 125.5t-137.5 329.5zM170 897q0 -166 105.5 -263t289.5 -97v720q-183 0 -289 -98t-106 -262z" />
<glyph unicode="&#xb7;" horiz-adv-x="411" d="M102 733q0 43 31 73t74 30t73.5 -30t30.5 -73q0 -44 -30.5 -74t-73.5 -30t-74 30t-31 74z" />
<glyph unicode="&#xb8;" horiz-adv-x="1038" d="M328 -352l45 78q58 -70 153 -70q57 0 94 35t37 92q0 66 -45 114.5t-170 108.5l72 33q122 -45 182 -115.5t60 -152.5q0 -86 -59 -143.5t-156 -57.5q-138 0 -213 78z" />
<glyph unicode="&#xb9;" horiz-adv-x="432" d="M8 1337l236 158h88v-813h-101v561q0 17 5 129l-175 -115z" />
<glyph unicode="&#xba;" horiz-adv-x="706" d="M47 1016q0 346 307 346q153 0 230.5 -88t77.5 -258t-77.5 -258t-230.5 -88q-307 0 -307 346zM68 430v76h571v-76h-571zM147 1016q0 -266 207 -266t207 266q0 268 -207 268t-207 -268z" />
<glyph unicode="&#xbb;" horiz-adv-x="888" d="M88 141l274 402l-274 401h125l272 -401l-272 -402h-125zM403 141l275 402l-275 401h125l273 -401l-273 -402h-125z" />
<glyph unicode="&#xbc;" horiz-adv-x="1361" d="M8 1204l236 158h88v-813h-101v561q0 16 5 129l-175 -115zM285 0l592 1352h114l-592 -1352h-114zM733 221v51l395 537h111v-508h53v-80h-53v-229h-92v229h-414zM856 301h291v330l2 67z" />
<glyph unicode="&#xbd;" horiz-adv-x="1470" d="M8 1204l236 158h88v-813h-101v561q0 16 5 129l-175 -115zM285 0l592 1352h114l-592 -1352h-114zM901 573q14 112 86 179t184 67q115 0 181.5 -67.5t66.5 -182.5q0 -105 -78 -213.5t-260 -279.5h52h288v-84h-508v53q53 49 76 70.5t67.5 63t63.5 61t53 54t49 53.5t38 47.5 t32.5 47.5t21 42.5t15.5 44t4 40.5q0 76 -42.5 122t-121.5 46q-83 0 -131.5 -54t-56.5 -144z" />
<glyph unicode="&#xbe;" horiz-adv-x="1599" d="M49 739l90 33q28 -151 189 -151q77 0 127.5 38.5t50.5 112.5q0 71 -43.5 109.5t-130.5 38.5h-53v73h49q77 0 117 41.5t40 108.5q0 69 -44 107t-115 38q-65 0 -108 -34.5t-56 -98.5l-90 35q25 89 90 135.5t166 46.5q123 0 190.5 -60t67.5 -159q0 -138 -129 -195v-2 q60 -18 104.5 -67.5t44.5 -128.5q0 -103 -76.5 -163t-201.5 -60q-115 0 -187.5 55.5t-91.5 146.5zM524 0l592 1352h115l-592 -1352h-115zM971 221v51l395 537h111v-508h53v-80h-53v-229h-93v229h-413zM1094 301h290v330l2 67z" />
<glyph unicode="&#xbf;" horiz-adv-x="1019" d="M98 80q0 171 114 297t282 143v199h100v-295l-43 -2h-6h-2q-143 -5 -243.5 -103t-100.5 -239t99.5 -240.5t240.5 -99.5q97 0 178 50.5t123 133.5l90 -47q-56 -107 -160.5 -171t-230.5 -64q-120 0 -221.5 58.5t-160.5 159.5t-59 220zM440 936q0 44 31 74t74 30t73.5 -30 t30.5 -74q0 -43 -30.5 -72.5t-73.5 -29.5t-74 30t-31 72z" />
<glyph unicode="&#xc0;" horiz-adv-x="1267" d="M29 0l538 1352h133l537 -1352h-119l-149 377h-672l-150 -377h-118zM338 481h590l-242 611l-53 151h-2l-49 -147zM418 1825h119l131 -303h-115z" />
<glyph unicode="&#xc1;" horiz-adv-x="1267" d="M29 0l538 1352h133l537 -1352h-119l-149 377h-672l-150 -377h-118zM338 481h590l-242 611l-53 151h-2l-49 -147zM582 1522l131 303h118l-135 -303h-114z" />
<glyph unicode="&#xc2;" horiz-adv-x="1267" d="M29 0l538 1352h133l537 -1352h-119l-149 377h-672l-150 -377h-118zM338 481h590l-242 611l-53 151h-2l-49 -147zM342 1513l229 322h127l230 -322h-105l-188 246l-189 -246h-104z" />
<glyph unicode="&#xc3;" horiz-adv-x="1267" d="M29 0l538 1352h133l537 -1352h-119l-149 377h-672l-150 -377h-118zM283 1532q12 119 62.5 177t146.5 58q43 0 78.5 -14.5t59.5 -35.5t46 -41.5t48 -35t54 -14.5q53 0 78.5 35t38.5 108h92q-14 -119 -64.5 -177t-144.5 -58q-43 0 -78.5 14.5t-59.5 35t-46 41.5t-48.5 35.5 t-56.5 14.5q-54 0 -78.5 -34.5t-37.5 -108.5h-90zM338 481h590l-242 611l-53 151h-2l-49 -147z" />
<glyph unicode="&#xc4;" horiz-adv-x="1267" d="M29 0l538 1352h133l537 -1352h-119l-149 377h-672l-150 -377h-118zM338 481h590l-242 611l-53 151h-2l-49 -147zM354 1622q0 36 26 62t64 26q35 0 61.5 -26.5t26.5 -61.5q0 -37 -26.5 -63.5t-61.5 -26.5q-38 0 -64 26.5t-26 63.5zM743 1622q0 36 26.5 62t64.5 26 q35 0 61.5 -26.5t26.5 -61.5q0 -37 -26.5 -63.5t-61.5 -26.5q-38 0 -64.5 26.5t-26.5 63.5z" />
<glyph unicode="&#xc5;" horiz-adv-x="1267" d="M29 0l518 1298q-59 24 -93 73.5t-34 117.5q0 91 60 147t155 56q96 0 154.5 -56t58.5 -147q0 -69 -33.5 -119t-93.5 -72l516 -1298h-119l-149 377h-672l-150 -377h-118zM338 481h590l-242 611l-53 151h-2l-49 -147zM500 1489q0 -58 37 -94.5t96 -36.5q60 0 97.5 36.5 t37.5 94.5t-37.5 94.5t-97.5 36.5q-59 0 -96 -36.5t-37 -94.5z" />
<glyph unicode="&#xc6;" horiz-adv-x="1873" d="M-12 0l819 1352h958v-105h-751v-510h583v-104h-583v-529h784v-104h-897v469h-506l-280 -469h-127zM457 573h444v674h-41z" />
<glyph unicode="&#xc7;" horiz-adv-x="1441" d="M90 678q0 189 93.5 350t254 254.5t348.5 93.5q162 0 303 -68.5t238 -189.5l-84 -69q-85 101 -203.5 158t-253.5 57q-159 0 -293.5 -78.5t-212 -214t-77.5 -295.5t77.5 -295.5t212 -214t293.5 -78.5q136 0 254 58t203 161l86 -71q-91 -113 -219.5 -181.5t-275.5 -77.5 q133 -85 133 -215q0 -86 -59 -143t-156 -57q-138 0 -213 78l45 77q57 -69 153 -69q57 0 94 35t37 92q0 62 -39.5 108.5t-144.5 100.5q-124 18 -234 79.5t-189 152.5t-125 211.5t-46 250.5z" />
<glyph unicode="&#xc8;" horiz-adv-x="1239" d="M186 0v1352h928v-105h-815v-532h723v-109h-723v-502h848v-104h-961zM481 1825h119l131 -303h-115z" />
<glyph unicode="&#xc9;" horiz-adv-x="1239" d="M186 0v1352h928v-105h-815v-532h723v-109h-723v-502h848v-104h-961zM604 1522l131 303h119l-135 -303h-115z" />
<glyph unicode="&#xca;" horiz-adv-x="1239" d="M186 0v1352h928v-105h-815v-532h723v-109h-723v-502h848v-104h-961zM356 1513l230 322h127l229 -322h-104l-189 246l-188 -246h-105z" />
<glyph unicode="&#xcb;" horiz-adv-x="1239" d="M186 0v1352h928v-105h-815v-532h723v-109h-723v-502h848v-104h-961zM369 1622q0 36 26 62t64 26q35 0 61.5 -26.5t26.5 -61.5q0 -37 -26.5 -63.5t-61.5 -26.5q-38 0 -64 26.5t-26 63.5zM758 1622q0 36 26 62t64 26q35 0 61.5 -26.5t26.5 -61.5q0 -37 -26.5 -63.5 t-61.5 -26.5q-38 0 -64 26.5t-26 63.5z" />
<glyph unicode="&#xcc;" horiz-adv-x="532" d="M49 1825h119l131 -303h-115zM207 0v1352h119v-1352h-119z" />
<glyph unicode="&#xcd;" horiz-adv-x="532" d="M207 0v1352h119v-1352h-119zM229 1522l131 303h119l-135 -303h-115z" />
<glyph unicode="&#xce;" horiz-adv-x="532" d="M-27 1513l230 322h127l229 -322h-104l-189 246l-188 -246h-105zM207 0v1352h119v-1352h-119z" />
<glyph unicode="&#xcf;" horiz-adv-x="516" d="M14 1622q0 38 25 63t63 25q40 0 65.5 -25t25.5 -63q0 -40 -25.5 -65t-65.5 -25q-38 0 -63 25t-25 65zM207 0v1352h119v-1352h-119zM324 1622q0 38 25 63t63 25q40 0 65 -25t25 -63q0 -40 -25 -65t-65 -25q-38 0 -63 25t-25 65z" />
<glyph unicode="&#xd0;" horiz-adv-x="1447" d="M25 639v86h196v627h492q318 0 495.5 -179.5t177.5 -488.5q0 -318 -177.5 -501t-495.5 -183h-492v639h-196zM334 104h387q259 0 403 157.5t144 422.5q0 257 -144 410t-403 153h-387v-522h418v-86h-418v-535z" />
<glyph unicode="&#xd1;" horiz-adv-x="1415" d="M186 0v1352h142l690 -1033l108 -196h2l-6 178v1051h107v-1352h-142l-690 1036l-108 193l6 -178v-1051h-109zM367 1532q12 119 62.5 177t145.5 58q43 0 78.5 -14.5t60 -35.5t46.5 -41.5t48 -35t54 -14.5q53 0 78.5 35t38.5 108h92q-14 -119 -64.5 -177t-144.5 -58 q-43 0 -78.5 14.5t-59.5 35t-46 41.5t-48.5 35.5t-56.5 14.5q-54 0 -78.5 -34.5t-37.5 -108.5h-90z" />
<glyph unicode="&#xd2;" horiz-adv-x="1564" d="M84 678q0 142 55.5 271t149 222.5t222.5 149t271 55.5q189 0 350 -93.5t255 -254.5t94 -350q0 -191 -94 -353t-255 -256t-350 -94t-350 94t-254.5 256t-93.5 353zM193 676q0 -159 79 -295t215 -215.5t295 -79.5t294.5 79.5t214.5 215.5t79 295q0 160 -79 296.5 t-214.5 216t-294.5 79.5t-295 -79.5t-215 -216t-79 -296.5zM590 1825h119l131 -303h-115z" />
<glyph unicode="&#xd3;" horiz-adv-x="1564" d="M84 678q0 142 55.5 271t149 222.5t222.5 149t271 55.5q189 0 350 -93.5t255 -254.5t94 -350q0 -191 -94 -353t-255 -256t-350 -94t-350 94t-254.5 256t-93.5 353zM193 676q0 -159 79 -295t215 -215.5t295 -79.5t294.5 79.5t214.5 215.5t79 295q0 160 -79 296.5 t-214.5 216t-294.5 79.5t-295 -79.5t-215 -216t-79 -296.5zM729 1522l131 303h119l-135 -303h-115z" />
<glyph unicode="&#xd4;" horiz-adv-x="1564" d="M84 678q0 142 55.5 271t149 222.5t222.5 149t271 55.5q189 0 350 -93.5t255 -254.5t94 -350q0 -191 -94 -353t-255 -256t-350 -94t-350 94t-254.5 256t-93.5 353zM193 676q0 -159 79 -295t215 -215.5t295 -79.5t294.5 79.5t214.5 215.5t79 295q0 160 -79 296.5 t-214.5 216t-294.5 79.5t-295 -79.5t-215 -216t-79 -296.5zM489 1513l230 322h127l229 -322h-104l-189 246l-188 -246h-105z" />
<glyph unicode="&#xd5;" horiz-adv-x="1564" d="M84 678q0 142 55.5 271t149 222.5t222.5 149t271 55.5q189 0 350 -93.5t255 -254.5t94 -350q0 -191 -94 -353t-255 -256t-350 -94t-350 94t-254.5 256t-93.5 353zM193 676q0 -159 79 -295t215 -215.5t295 -79.5t294.5 79.5t214.5 215.5t79 295q0 160 -79 296.5 t-214.5 216t-294.5 79.5t-295 -79.5t-215 -216t-79 -296.5zM430 1532q12 119 62.5 177t146.5 58q43 0 78.5 -14.5t60 -35.5t46.5 -41.5t48 -35t54 -14.5q52 0 77.5 35t38.5 108h93q-14 -119 -64.5 -177t-144.5 -58q-43 0 -78.5 14.5t-59.5 35t-46 41.5t-48.5 35.5 t-56.5 14.5q-54 0 -79 -34.5t-38 -108.5h-90z" />
<glyph unicode="&#xd6;" horiz-adv-x="1564" d="M84 678q0 142 55.5 271t149 222.5t222.5 149t271 55.5q189 0 350 -93.5t255 -254.5t94 -350q0 -191 -94 -353t-255 -256t-350 -94t-350 94t-254.5 256t-93.5 353zM193 676q0 -159 79 -295t215 -215.5t295 -79.5t294.5 79.5t214.5 215.5t79 295q0 160 -79 296.5 t-214.5 216t-294.5 79.5t-295 -79.5t-215 -216t-79 -296.5zM502 1622q0 36 26 62t64 26q35 0 61.5 -26.5t26.5 -61.5q0 -37 -26.5 -63.5t-61.5 -26.5q-38 0 -64 26.5t-26 63.5zM891 1622q0 36 26 62t64 26q35 0 61.5 -26.5t26.5 -61.5q0 -37 -26.5 -63.5t-61.5 -26.5 q-38 0 -64 26.5t-26 63.5z" />
<glyph unicode="&#xd7;" d="M188 305l76 -78l342 342l340 -342l78 78l-342 340l342 342l-78 76l-340 -340l-342 340l-76 -76l418 -418l76 76l-76 78z" />
<glyph unicode="&#xd8;" horiz-adv-x="1566" d="M84 678q0 142 55.5 271t149 222.5t222.5 149t271 55.5q215 0 392 -121l106 150h104l-143 -201q113 -99 176.5 -235.5t63.5 -290.5q0 -191 -94 -353t-255 -256t-350 -94q-186 0 -344 93l-98 -138h-104l129 185q-130 97 -205.5 245t-75.5 318zM193 676q0 -142 63.5 -264.5 t173.5 -206.5l680 960q-144 103 -328 103q-159 0 -295 -79.5t-215 -216t-79 -296.5zM502 158q134 -72 280 -72q159 0 294.5 79.5t214.5 215.5t79 295q0 127 -50.5 241t-141.5 197z" />
<glyph unicode="&#xd9;" horiz-adv-x="1372" d="M164 496v856h112v-832q0 -436 410 -436t410 436v832h112v-856q0 -252 -135 -384t-387 -132q-251 0 -386.5 132t-135.5 384zM494 1825h118l131 -303h-114z" />
<glyph unicode="&#xda;" horiz-adv-x="1372" d="M164 496v856h112v-832q0 -436 410 -436t410 436v832h112v-856q0 -252 -135 -384t-387 -132q-251 0 -386.5 132t-135.5 384zM633 1522l131 303h119l-135 -303h-115z" />
<glyph unicode="&#xdb;" horiz-adv-x="1372" d="M164 496v856h112v-832q0 -436 410 -436t410 436v832h112v-856q0 -252 -135 -384t-387 -132q-251 0 -386.5 132t-135.5 384zM393 1513l230 322h127l229 -322h-105l-188 246l-188 -246h-105z" />
<glyph unicode="&#xdc;" horiz-adv-x="1372" d="M164 496v856h112v-832q0 -436 410 -436t410 436v832h112v-856q0 -252 -135 -384t-387 -132q-251 0 -386.5 132t-135.5 384zM406 1622q0 36 26 62t64 26q35 0 61.5 -26.5t26.5 -61.5q0 -37 -26.5 -63.5t-61.5 -26.5q-38 0 -64 26.5t-26 63.5zM795 1622q0 36 26 62t64 26 q35 0 61.5 -26.5t26.5 -61.5q0 -37 -26.5 -63.5t-61.5 -26.5q-38 0 -64 26.5t-26 63.5z" />
<glyph unicode="&#xdd;" horiz-adv-x="1120" d="M25 1352h133l262 -463l141 -246l402 709h135l-482 -826v-526h-112v526zM508 1522l131 303h119l-135 -303h-115z" />
<glyph unicode="&#xde;" horiz-adv-x="1210" d="M201 0v1352h112v-256h318q244 0 368.5 -103t124.5 -301q0 -197 -124.5 -300t-368.5 -103h-318v-289h-112zM313 393h334q361 0 361 299t-361 299h-334v-598z" />
<glyph unicode="&#xdf;" horiz-adv-x="1191" d="M172 0v1032q0 473 457 473q102 0 182 -30.5t128 -83.5t72.5 -118t24.5 -138q0 -88 -35.5 -163.5t-111 -126t-178.5 -52.5v-2q97 -2 172 -35.5t119.5 -90t67 -126t22.5 -148.5q0 -176 -114 -293.5t-312 -117.5q-66 0 -125 21t-90 54l36 90q66 -63 185 -63q145 0 228 87.5 t83 233.5q0 160 -99.5 243t-277.5 83h-84v105h84q143 0 228.5 80.5t85.5 213.5t-78.5 203t-223.5 70q-176 0 -255.5 -101t-79.5 -305v-995h-111z" />
<glyph unicode="&#xe0;" horiz-adv-x="1128" d="M106 258q0 226 310 297q133 37 446 57v78q0 117 -82.5 185.5t-214.5 68.5q-270 0 -356 -211l-84 62q43 120 156.5 184.5t283.5 64.5q181 0 295.5 -88.5t114.5 -253.5v-524v-188h-113v168q-53 -83 -167 -130.5t-232 -47.5q-162 0 -259.5 75t-97.5 203zM219 258 q0 -79 70.5 -131.5t183.5 -52.5q62 0 129 17.5t126 48.5t96.5 81t37.5 109v188q-290 -20 -407 -49q-236 -49 -236 -211zM365 1520h116l174 -326h-110z" />
<glyph unicode="&#xe1;" horiz-adv-x="1128" d="M106 258q0 226 310 297q133 37 446 57v78q0 117 -82.5 185.5t-214.5 68.5q-270 0 -356 -211l-84 62q43 120 156.5 184.5t283.5 64.5q181 0 295.5 -88.5t114.5 -253.5v-524v-188h-113v168q-53 -83 -167 -130.5t-232 -47.5q-162 0 -259.5 75t-97.5 203zM219 258 q0 -79 70.5 -131.5t183.5 -52.5q62 0 129 17.5t126 48.5t96.5 81t37.5 109v188q-290 -20 -407 -49q-236 -49 -236 -211zM516 1194l174 326h117l-180 -326h-111z" />
<glyph unicode="&#xe2;" horiz-adv-x="1128" d="M106 258q0 226 310 297q133 37 446 57v78q0 117 -82.5 185.5t-214.5 68.5q-270 0 -356 -211l-84 62q43 120 156.5 184.5t283.5 64.5q181 0 295.5 -88.5t114.5 -253.5v-524v-188h-113v168q-53 -83 -167 -130.5t-232 -47.5q-162 0 -259.5 75t-97.5 203zM219 258 q0 -79 70.5 -131.5t183.5 -52.5q62 0 129 17.5t126 48.5t96.5 81t37.5 109v188q-290 -20 -407 -49q-236 -49 -236 -211zM295 1186l225 321h129l228 -321h-117l-174 246l-174 -246h-117z" />
<glyph unicode="&#xe3;" horiz-adv-x="1128" d="M106 258q0 226 310 297q133 37 446 57v78q0 117 -82.5 185.5t-214.5 68.5q-270 0 -356 -211l-84 62q43 120 156.5 184.5t283.5 64.5q181 0 295.5 -88.5t114.5 -253.5v-524v-188h-113v168q-53 -83 -167 -130.5t-232 -47.5q-162 0 -259.5 75t-97.5 203zM219 258 q0 -79 70.5 -131.5t183.5 -52.5q62 0 129 17.5t126 48.5t96.5 81t37.5 109v188q-290 -20 -407 -49q-236 -49 -236 -211zM238 1204q12 119 62.5 177.5t145.5 58.5q43 0 78.5 -14.5t60 -35.5t46.5 -42t48 -35.5t54 -14.5q52 0 78 35.5t39 108.5h92q-14 -119 -64.5 -177.5 t-144.5 -58.5q-43 0 -78.5 14.5t-59.5 35.5t-46 42t-48.5 35.5t-56.5 14.5q-53 0 -78 -35t-38 -109h-90z" />
<glyph unicode="&#xe4;" horiz-adv-x="1128" d="M106 258q0 226 310 297q133 37 446 57v78q0 117 -82.5 185.5t-214.5 68.5q-270 0 -356 -211l-84 62q43 120 156.5 184.5t283.5 64.5q181 0 295.5 -88.5t114.5 -253.5v-524v-188h-113v168q-53 -83 -167 -130.5t-232 -47.5q-162 0 -259.5 75t-97.5 203zM219 258 q0 -79 70.5 -131.5t183.5 -52.5q62 0 129 17.5t126 48.5t96.5 81t37.5 109v188q-290 -20 -407 -49q-236 -49 -236 -211zM309 1294q0 36 26 62t64 26q35 0 61.5 -26.5t26.5 -61.5q0 -37 -26.5 -63.5t-61.5 -26.5q-38 0 -64 26.5t-26 63.5zM698 1294q0 36 26 62t64 26 q35 0 62 -26.5t27 -61.5q0 -36 -26.5 -63t-62.5 -27q-38 0 -64 26.5t-26 63.5z" />
<glyph unicode="&#xe5;" horiz-adv-x="1128" d="M106 258q0 226 310 297q133 37 446 57v78q0 117 -82.5 185.5t-214.5 68.5q-270 0 -356 -211l-84 62q43 120 156.5 184.5t283.5 64.5q181 0 295.5 -88.5t114.5 -253.5v-524v-188h-113v168q-53 -83 -167 -130.5t-232 -47.5q-162 0 -259.5 75t-97.5 203zM219 258 q0 -79 70.5 -131.5t183.5 -52.5q62 0 129 17.5t126 48.5t96.5 81t37.5 109v188q-290 -20 -407 -49q-236 -49 -236 -211zM348 1391q0 88 62 149.5t151 61.5q87 0 149 -62t62 -149q0 -89 -62 -151t-149 -62q-89 0 -151 62t-62 151zM434 1391q0 -53 37 -90t90 -37 q51 0 88.5 37.5t36.5 89.5q0 51 -37 86.5t-88 35.5q-53 0 -90 -35.5t-37 -86.5z" />
<glyph unicode="&#xe6;" horiz-adv-x="1771" d="M96 242q0 120 95 199t284 102l328 39v106q0 121 -73.5 189.5t-207.5 68.5q-235 0 -323 -213l-84 62q46 121 151.5 185t257.5 64q133 0 223.5 -59t126.5 -174q55 112 149 172.5t218 60.5q210 0 320 -131.5t110 -357.5q0 -36 -4 -76h-764q9 -187 103 -294t245 -107 q235 0 308 182l94 -49q-59 -114 -153.5 -172.5t-248.5 -58.5q-145 0 -249 70.5t-150 207.5q-25 -94 -91 -158t-151.5 -92t-185.5 -28q-150 0 -239 69.5t-89 192.5zM211 242q0 -81 62 -122.5t171 -41.5q65 0 126.5 19t114.5 56t85.5 100.5t32.5 143.5v95l-293 -37 q-158 -21 -228.5 -73.5t-70.5 -139.5zM907 582h658q-22 364 -324 364q-140 0 -229.5 -96.5t-104.5 -267.5z" />
<glyph unicode="&#xe7;" horiz-adv-x="1134" d="M86 510q0 146 71 269.5t193 195.5t266 72q138 0 258.5 -69t190.5 -185l-86 -56q-58 95 -153.5 150t-209.5 55q-178 0 -297.5 -124.5t-119.5 -305.5q0 -180 119.5 -302t297.5 -122q113 0 206 49t151 139l90 -53q-62 -99 -162 -161.5t-219 -75.5q133 -85 133 -215 q0 -86 -59 -143.5t-156 -57.5q-138 0 -213 78l45 78q58 -70 154 -70q57 0 94 35t37 92q0 62 -38 107t-138 98q-128 17 -232 90t-163.5 186.5t-59.5 245.5z" />
<glyph unicode="&#xe8;" horiz-adv-x="1179" d="M111 512q0 232 139.5 382t363.5 150q140 0 250 -67t169 -181.5t59 -254.5q0 -6 -7 -76h-862q15 -179 128 -283t274 -104q115 0 215 49.5t135 134.5l92 -51q-57 -107 -175.5 -168t-266.5 -61q-224 0 -369 143.5t-145 386.5zM223 563h760q-12 171 -113.5 277t-255.5 106 q-160 0 -268 -107.5t-123 -275.5zM385 1520h117l174 -326h-111z" />
<glyph unicode="&#xe9;" horiz-adv-x="1179" d="M111 512q0 232 139.5 382t363.5 150q140 0 250 -67t169 -181.5t59 -254.5q0 -6 -7 -76h-862q15 -179 128 -283t274 -104q115 0 215 49.5t135 134.5l92 -51q-57 -107 -175.5 -168t-266.5 -61q-224 0 -369 143.5t-145 386.5zM223 563h760q-12 171 -113.5 277t-255.5 106 q-160 0 -268 -107.5t-123 -275.5zM537 1194l174 326h116l-180 -326h-110z" />
<glyph unicode="&#xea;" horiz-adv-x="1179" d="M111 512q0 232 139.5 382t363.5 150q140 0 250 -67t169 -181.5t59 -254.5q0 -6 -7 -76h-862q15 -179 128 -283t274 -104q115 0 215 49.5t135 134.5l92 -51q-57 -107 -175.5 -168t-266.5 -61q-224 0 -369 143.5t-145 386.5zM223 563h760q-12 171 -113.5 277t-255.5 106 q-160 0 -268 -107.5t-123 -275.5zM315 1186l226 321h129l227 -321h-117l-174 246l-174 -246h-117z" />
<glyph unicode="&#xeb;" horiz-adv-x="1179" d="M111 512q0 232 139.5 382t363.5 150q140 0 250 -67t169 -181.5t59 -254.5q0 -6 -7 -76h-862q15 -179 128 -283t274 -104q115 0 215 49.5t135 134.5l92 -51q-57 -107 -175.5 -168t-266.5 -61q-224 0 -369 143.5t-145 386.5zM223 563h760q-12 171 -113.5 277t-255.5 106 q-160 0 -268 -107.5t-123 -275.5zM330 1294q0 36 26 62t64 26q35 0 61.5 -26.5t26.5 -61.5q0 -37 -26.5 -63.5t-61.5 -26.5q-38 0 -64 26.5t-26 63.5zM719 1294q0 36 26 62t64 26q35 0 61.5 -26.5t26.5 -61.5q0 -37 -26.5 -63.5t-61.5 -26.5q-38 0 -64 26.5t-26 63.5z" />
<glyph unicode="&#xec;" horiz-adv-x="456" d="M4 1520h117l174 -326h-111zM172 0v1024h113v-1024h-113z" />
<glyph unicode="&#xed;" horiz-adv-x="456" d="M168 1194l174 326h117l-180 -326h-111zM172 0v1024h113v-1024h-113z" />
<glyph unicode="&#xee;" horiz-adv-x="456" d="M-66 1186l226 321h129l227 -321h-117l-174 246l-174 -246h-117zM172 0v1024h113v-1024h-113z" />
<glyph unicode="&#xef;" horiz-adv-x="456" d="M0 1294q0 39 24.5 63.5t63.5 24.5q40 0 65 -25t25 -63q0 -40 -25 -65t-65 -25t-64 25t-24 65zM172 0v1024h113v-1024h-113zM279 1294q0 39 24.5 63.5t65.5 24.5q38 0 63 -25t25 -63q0 -40 -25 -65t-63 -25q-41 0 -65.5 25t-24.5 65z" />
<glyph unicode="&#xf0;" horiz-adv-x="1210" d="M106 487q0 230 132.5 368t341.5 138q277 0 387 -200q-43 263 -179 436l-370 -90l-17 71l338 74q-121 124 -305 211h164q146 -81 242 -188l231 59l21 -72l-205 -43q190 -254 190 -665q0 -286 -124.5 -446t-362.5 -160q-224 0 -354 136t-130 371zM221 487 q0 -190 100.5 -299.5t272.5 -109.5q171 0 271.5 117.5t105.5 306.5q0 174 -100 283.5t-277 109.5q-172 0 -272.5 -110t-100.5 -298z" />
<glyph unicode="&#xf1;" horiz-adv-x="1173" d="M150 0v1024h100l6 -199q50 106 149.5 162.5t225.5 56.5q177 0 285 -98.5t108 -281.5v-664h-113v627q0 161 -79 240t-214 79q-70 0 -133.5 -24.5t-113.5 -70.5t-79.5 -118t-29.5 -160v-573h-112zM244 1204q12 119 63 177.5t146 58.5q43 0 78.5 -14.5t59.5 -35.5t46 -42 t48 -35.5t54 -14.5q52 0 78 35.5t39 108.5h92q-14 -119 -64.5 -177.5t-144.5 -58.5q-43 0 -78.5 14.5t-59.5 35.5t-46 42t-48 35.5t-56 14.5q-54 0 -79 -35t-38 -109h-90z" />
<glyph unicode="&#xf2;" horiz-adv-x="1220" d="M78 510q0 146 71 269.5t193.5 195.5t267.5 72q108 0 206.5 -42.5t170 -114.5t114 -171.5t42.5 -208.5q0 -145 -71.5 -266.5t-194.5 -191.5t-267 -70q-145 0 -267.5 70t-193.5 191.5t-71 266.5zM190 512q0 -176 122.5 -298t297.5 -122q174 0 297 122t123 298 q0 177 -123.5 302.5t-296.5 125.5q-175 0 -297.5 -125.5t-122.5 -302.5zM385 1520h117l174 -326h-111z" />
<glyph unicode="&#xf3;" horiz-adv-x="1220" d="M78 510q0 146 71 269.5t193.5 195.5t267.5 72q108 0 206.5 -42.5t170 -114.5t114 -171.5t42.5 -208.5q0 -145 -71.5 -266.5t-194.5 -191.5t-267 -70q-145 0 -267.5 70t-193.5 191.5t-71 266.5zM190 512q0 -176 122.5 -298t297.5 -122q174 0 297 122t123 298 q0 177 -123.5 302.5t-296.5 125.5q-175 0 -297.5 -125.5t-122.5 -302.5zM537 1194l174 326h116l-180 -326h-110z" />
<glyph unicode="&#xf4;" horiz-adv-x="1220" d="M78 510q0 146 71 269.5t193.5 195.5t267.5 72q108 0 206.5 -42.5t170 -114.5t114 -171.5t42.5 -208.5q0 -145 -71.5 -266.5t-194.5 -191.5t-267 -70q-145 0 -267.5 70t-193.5 191.5t-71 266.5zM190 512q0 -176 122.5 -298t297.5 -122q174 0 297 122t123 298 q0 177 -123.5 302.5t-296.5 125.5q-175 0 -297.5 -125.5t-122.5 -302.5zM315 1186l226 321h129l227 -321h-117l-174 246l-174 -246h-117z" />
<glyph unicode="&#xf5;" horiz-adv-x="1220" d="M78 510q0 146 71 269.5t193.5 195.5t267.5 72q108 0 206.5 -42.5t170 -114.5t114 -171.5t42.5 -208.5q0 -145 -71.5 -266.5t-194.5 -191.5t-267 -70q-145 0 -267.5 70t-193.5 191.5t-71 266.5zM190 512q0 -176 122.5 -298t297.5 -122q174 0 297 122t123 298 q0 177 -123.5 302.5t-296.5 125.5q-175 0 -297.5 -125.5t-122.5 -302.5zM256 1204q12 119 63 177.5t146 58.5q43 0 78.5 -14.5t60 -35.5t46.5 -42t48 -35.5t54 -14.5q52 0 77.5 35.5t38.5 108.5h93q-14 -119 -64.5 -177.5t-144.5 -58.5q-43 0 -78.5 14.5t-59.5 35.5t-46 42 t-48.5 35.5t-56.5 14.5q-54 0 -79 -35t-38 -109h-90z" />
<glyph unicode="&#xf6;" horiz-adv-x="1220" d="M78 510q0 146 71 269.5t193.5 195.5t267.5 72q108 0 206.5 -42.5t170 -114.5t114 -171.5t42.5 -208.5q0 -145 -71.5 -266.5t-194.5 -191.5t-267 -70q-145 0 -267.5 70t-193.5 191.5t-71 266.5zM190 512q0 -176 122.5 -298t297.5 -122q174 0 297 122t123 298 q0 177 -123.5 302.5t-296.5 125.5q-175 0 -297.5 -125.5t-122.5 -302.5zM328 1294q0 36 26 62t64 26q35 0 61.5 -26.5t26.5 -61.5q0 -37 -26.5 -63.5t-61.5 -26.5q-38 0 -64 26.5t-26 63.5zM717 1294q0 36 26 62t64 26q35 0 61.5 -26.5t26.5 -61.5q0 -37 -26.5 -63.5 t-61.5 -26.5q-38 0 -64 26.5t-26 63.5z" />
<glyph unicode="&#xf7;" d="M123 596v104h967v-104h-967zM502 258q0 43 30.5 72.5t73.5 29.5t74 -30t31 -72q0 -44 -31 -74t-74 -30t-73.5 30t-30.5 74zM502 1040q0 43 30.5 73t73.5 30t74 -30t31 -73q0 -44 -31 -74t-74 -30t-73.5 30t-30.5 74z" />
<glyph unicode="&#xf8;" horiz-adv-x="1191" d="M106 512q0 249 130 390.5t358 141.5q182 0 301 -90l94 123h101l-136 -176q129 -141 129 -389q0 -249 -130 -390.5t-359 -141.5q-167 0 -285 79l-100 -129h-100l137 181q-140 143 -140 401zM219 512q0 -196 94 -313h2l66 88l450 583q-95 76 -237 76q-175 0 -275 -116 t-100 -318zM373 145q85 -67 221 -67q177 0 277 115.5t100 318.5q0 187 -86 299h-2l-54 -74z" />
<glyph unicode="&#xf9;" horiz-adv-x="1144" d="M133 350v674h113v-647q0 -299 276 -299q163 0 264 103t101 261v582h112v-1024h-108v188q-52 -102 -153 -155t-236 -53q-167 0 -268 93t-101 277zM344 1520h117l174 -326h-111z" />
<glyph unicode="&#xfa;" horiz-adv-x="1144" d="M133 350v674h113v-647q0 -299 276 -299q163 0 264 103t101 261v582h112v-1024h-108v188q-52 -102 -153 -155t-236 -53q-167 0 -268 93t-101 277zM496 1194l174 326h116l-180 -326h-110z" />
<glyph unicode="&#xfb;" horiz-adv-x="1144" d="M133 350v674h113v-647q0 -299 276 -299q163 0 264 103t101 261v582h112v-1024h-108v188q-52 -102 -153 -155t-236 -53q-167 0 -268 93t-101 277zM274 1186l226 321h129l227 -321h-117l-174 246l-174 -246h-117z" />
<glyph unicode="&#xfc;" horiz-adv-x="1144" d="M133 350v674h113v-647q0 -299 276 -299q163 0 264 103t101 261v582h112v-1024h-108v188q-52 -102 -153 -155t-236 -53q-167 0 -268 93t-101 277zM287 1294q0 36 26 62t64 26q35 0 61.5 -26.5t26.5 -61.5q0 -37 -26.5 -63.5t-61.5 -26.5q-38 0 -64 26.5t-26 63.5z M676 1294q0 36 26 62t64 26q35 0 61.5 -26.5t26.5 -61.5q0 -37 -26.5 -63.5t-61.5 -26.5q-38 0 -64 26.5t-26 63.5z" />
<glyph unicode="&#xfd;" horiz-adv-x="1042" d="M14 -362l43 96q50 -76 156 -76q69 0 119 40t92 144l63 158l-432 1024h129l303 -760l54 -143l59 158l291 745h121l-492 -1210q-58 -140 -128 -197t-179 -57q-130 0 -199 78zM463 1194l174 326h117l-181 -326h-110z" />
<glyph unicode="&#xfe;" horiz-adv-x="1228" d="M172 -430v1925h113v-661q50 98 146.5 154t223.5 56q218 0 342.5 -141t124.5 -391t-124.5 -391t-342.5 -141q-129 0 -225.5 56.5t-144.5 156.5v-623h-113zM285 502q0 -195 97 -309.5t259 -114.5q173 0 271 116t98 318t-98 318t-271 116q-163 0 -259.5 -114t-96.5 -310v-20 z" />
<glyph unicode="&#xff;" horiz-adv-x="1042" d="M14 -362l43 96q50 -76 156 -76q69 0 119 40t92 144l63 158l-432 1024h129l303 -760l54 -143l59 158l291 745h121l-492 -1210q-58 -140 -128 -197t-179 -57q-130 0 -199 78zM254 1294q0 36 26 62t64 26q35 0 61.5 -26.5t26.5 -61.5q0 -37 -26.5 -63.5t-61.5 -26.5 q-38 0 -64 26.5t-26 63.5zM643 1294q0 36 26 62t64 26q35 0 61.5 -26.5t26.5 -61.5q0 -37 -26.5 -63.5t-61.5 -26.5q-38 0 -64 26.5t-26 63.5z" />
<glyph unicode="&#x152;" horiz-adv-x="2162" d="M117 676q0 322 163 509t447 187q323 0 465 -262v242h862v-105h-758v-508h594v-104h-594v-531h791v-104h-895v246q-144 -266 -471 -266q-278 0 -441 187.5t-163 508.5zM236 676q0 -276 130.5 -434t360.5 -158q225 0 345 152.5t120 439.5t-120 439.5t-345 152.5 q-230 0 -360.5 -158t-130.5 -434z" />
<glyph unicode="&#x153;" horiz-adv-x="1998" d="M106 512q0 249 131 390.5t361 141.5q157 0 268.5 -70t165.5 -200q52 130 158 200t260 70q209 0 327.5 -139t118.5 -364q0 -36 -4 -76h-805q10 -183 109 -285t264 -102q119 0 205 47.5t123 134.5l94 -49q-123 -231 -422 -231q-154 0 -264 70.5t-164 201.5 q-54 -131 -165.5 -201.5t-268.5 -70.5q-230 0 -361 141.5t-131 390.5zM221 512q0 -202 101 -318t276 -116q177 0 277 115.5t100 318.5t-100 318.5t-277 115.5q-175 0 -276 -116t-101 -318zM1087 567h703q-11 179 -99.5 279t-240.5 100q-161 0 -256 -99.5t-107 -279.5z" />
<glyph unicode="&#x178;" horiz-adv-x="1120" d="M25 1352h133l262 -463l141 -246l402 709h135l-482 -826v-526h-112v526zM281 1622q0 36 26 62t64 26q35 0 61.5 -26.5t26.5 -61.5q0 -37 -26.5 -63.5t-61.5 -26.5q-38 0 -64 26.5t-26 63.5zM670 1622q0 36 26 62t64 26q35 0 61.5 -26.5t26.5 -61.5q0 -37 -26.5 -63.5 t-61.5 -26.5q-38 0 -64 26.5t-26 63.5z" />
<glyph unicode="&#x2c6;" horiz-adv-x="1038" d="M225 1186l226 321h129l227 -321h-117l-174 246l-174 -246h-117z" />
<glyph unicode="&#x2dc;" horiz-adv-x="1038" d="M150 1204q12 119 62.5 177.5t145.5 58.5q43 0 78.5 -14.5t60 -35.5t46.5 -42t48 -35.5t54 -14.5q52 0 78 35.5t39 108.5h92q-14 -119 -64.5 -177.5t-144.5 -58.5q-43 0 -78.5 14.5t-59.5 35.5t-46 42t-48.5 35.5t-56.5 14.5q-53 0 -78 -35t-38 -109h-90z" />
<glyph unicode="&#x2000;" horiz-adv-x="917" />
<glyph unicode="&#x2001;" horiz-adv-x="1835" />
<glyph unicode="&#x2002;" horiz-adv-x="917" />
<glyph unicode="&#x2003;" horiz-adv-x="1835" />
<glyph unicode="&#x2004;" horiz-adv-x="611" />
<glyph unicode="&#x2005;" horiz-adv-x="458" />
<glyph unicode="&#x2006;" horiz-adv-x="305" />
<glyph unicode="&#x2007;" horiz-adv-x="305" />
<glyph unicode="&#x2008;" horiz-adv-x="229" />
<glyph unicode="&#x2009;" horiz-adv-x="367" />
<glyph unicode="&#x200a;" horiz-adv-x="101" />
<glyph unicode="&#x2010;" horiz-adv-x="944" d="M154 483v117h637v-117h-637z" />
<glyph unicode="&#x2011;" horiz-adv-x="944" d="M154 483v117h637v-117h-637z" />
<glyph unicode="&#x2012;" horiz-adv-x="944" d="M154 483v117h637v-117h-637z" />
<glyph unicode="&#x2013;" horiz-adv-x="1290" d="M143 489v107h1004v-107h-1004z" />
<glyph unicode="&#x2014;" horiz-adv-x="1992" d="M143 489v107h1704v-107h-1704z" />
<glyph unicode="&#x2018;" horiz-adv-x="432" d="M109 1079q-10 123 56.5 208t182.5 114l33 -76q-79 -25 -118.5 -61.5t-51.5 -89.5h2q41 0 70.5 -29t29.5 -72q0 -41 -29.5 -69.5t-70.5 -28.5q-44 0 -72 27.5t-32 76.5z" />
<glyph unicode="&#x2019;" horiz-adv-x="430" d="M59 1075q79 25 119.5 62t52.5 90h-4q-42 0 -71 29t-29 71q0 41 29.5 69.5t70.5 28.5q45 0 73 -27.5t32 -76.5q10 -122 -57 -207.5t-183 -114.5z" />
<glyph unicode="&#x201a;" horiz-adv-x="446" d="M55 -168q79 25 118 62t52 90h-2q-42 0 -71 29t-29 71q0 41 29.5 69.5t70.5 28.5q45 0 73 -27.5t32 -76.5q10 -122 -57 -207.5t-183 -114.5z" />
<glyph unicode="&#x201c;" horiz-adv-x="745" d="M109 1079q-10 123 56.5 208t182.5 114l33 -76q-79 -25 -118.5 -61.5t-51.5 -89.5h2q41 0 70.5 -29t29.5 -72q0 -41 -29.5 -69.5t-70.5 -28.5q-44 0 -72 27.5t-32 76.5zM422 1079q-10 122 57 207.5t183 114.5l32 -76q-80 -26 -119.5 -62t-50.5 -89h2q42 0 71.5 -29.5 t29.5 -71.5q0 -41 -29.5 -69.5t-71.5 -28.5q-44 0 -72 27.5t-32 76.5z" />
<glyph unicode="&#x201d;" horiz-adv-x="743" d="M59 1075q79 25 119.5 62t52.5 90h-4q-42 0 -71 29t-29 71q0 41 29.5 69.5t70.5 28.5q45 0 73 -27.5t32 -76.5q10 -122 -57 -207.5t-183 -114.5zM373 1075q79 25 118 62t52 90h-2q-42 0 -71.5 29t-29.5 71q0 41 29.5 69.5t71.5 28.5q44 0 72 -27.5t32 -76.5 q10 -123 -56.5 -208t-182.5 -114z" />
<glyph unicode="&#x201e;" horiz-adv-x="759" d="M55 -168q79 25 118 62t52 90h-2q-42 0 -71 29t-29 71q0 41 29.5 69.5t70.5 28.5q45 0 73 -27.5t32 -76.5q10 -122 -57 -207.5t-183 -114.5zM369 -168q79 25 118 62t52 90h-2q-42 0 -71.5 29t-29.5 71q0 41 29.5 69.5t71.5 28.5q44 0 72 -27.5t32 -76.5 q10 -122 -57 -207.5t-183 -114.5z" />
<glyph unicode="&#x2022;" horiz-adv-x="856" d="M227 692q0 85 59 143t144 58q84 0 142.5 -58.5t58.5 -142.5q0 -85 -59 -144t-142 -59q-85 0 -144 59t-59 144z" />
<glyph unicode="&#x2026;" horiz-adv-x="1474" d="M131 84q0 42 31 72t74 30t73.5 -29.5t30.5 -72.5q0 -44 -30.5 -74t-73.5 -30t-74 30t-31 74zM633 84q0 43 30.5 72.5t73.5 29.5t74 -30t31 -72q0 -44 -31 -74t-74 -30t-73.5 30t-30.5 74zM1137 84q0 43 30.5 72.5t73.5 29.5t74 -30t31 -72q0 -44 -31 -74t-74 -30 t-73.5 30t-30.5 74z" />
<glyph unicode="&#x202f;" horiz-adv-x="367" />
<glyph unicode="&#x2039;" horiz-adv-x="577" d="M88 543l272 401h125l-274 -401l274 -402h-125z" />
<glyph unicode="&#x203a;" horiz-adv-x="577" d="M92 141l275 402l-275 401h125l272 -401l-272 -402h-125z" />
<glyph unicode="&#x205f;" horiz-adv-x="458" />
<glyph unicode="&#x20ac;" horiz-adv-x="1445" d="M-45 465l43 94h141q-10 65 -10 119q0 50 6 96h-180l43 92h158q62 227 252 372.5t432 145.5q161 0 305 -69.5t244 -190.5l-86 -71q-85 103 -206 162t-257 59q-196 0 -351.5 -113.5t-216.5 -294.5h725l-32 -92h-715q-8 -44 -8 -98q0 -62 12 -117h661l-32 -94h-602 q65 -171 217.5 -278t341.5 -107q137 0 257.5 59t205.5 162l86 -72q-100 -122 -243 -192t-306 -70q-235 0 -422.5 139.5t-255.5 358.5h-207z" />
<glyph unicode="&#x2122;" horiz-adv-x="1624" d="M80 1274v78h555v-78h-227v-598h-101v598h-227zM762 676v676h123l192 -467l33 -92h2l33 92l194 467h121v-676h-100v411l12 138h-2l-18 -54l-203 -495h-76l-203 495l-18 54h-2l10 -138v-411h-98z" />
<glyph unicode="&#x25fc;" horiz-adv-x="1024" d="M0 0v1024h1024v-1024h-1024z" />
</font>
</defs>
</svg>
