<?xml version="1.0" standalone="no"?>
<!DOCTYPE svg PUBLIC "-//W3C//DTD SVG 1.1//EN" "http://www.w3.org/Graphics/SVG/1.1/DTD/svg11.dtd" >
<svg xmlns="http://www.w3.org/2000/svg" xmlns:xlink="http://www.w3.org/1999/xlink" version="1.1">
<metadata></metadata>
<defs>
<font id="human_sansextralight" horiz-adv-x="1224" >
<font-face units-per-em="2048" ascent="1556" descent="-492" />
<missing-glyph horiz-adv-x="565" />
<glyph unicode="&#xfb01;" horiz-adv-x="1105" d="M61 971v53h205v170q0 146 75.5 228.5t211.5 82.5q98 0 158 -53v-63q-26 26 -69 43.5t-87 17.5q-106 0 -166.5 -68t-60.5 -192v-166h372v-53h-372v-971h-62v971h-205zM850 1282q0 28 20.5 50t49.5 22t50 -22t21 -50q0 -29 -21 -49.5t-50 -20.5t-49.5 20.5t-20.5 49.5z M889 0v1024h61v-1024h-61z" />
<glyph unicode="&#xfb02;" horiz-adv-x="1048" d="M61 971v53h205v170q0 146 75.5 228.5t211.5 82.5q98 0 158 -53v-63q-26 26 -69 43.5t-87 17.5q-106 0 -166.5 -68t-60.5 -192v-166h372v-53h-372v-971h-62v971h-205zM874 0v1495h62v-1495h-62z" />
<glyph horiz-adv-x="0" />
<glyph horiz-adv-x="682" />
<glyph unicode=" "  horiz-adv-x="565" />
<glyph unicode="&#x09;" horiz-adv-x="565" />
<glyph unicode="&#xa0;" horiz-adv-x="565" />
<glyph unicode="!" horiz-adv-x="403" d="M137 51q0 28 19 47t47 19t46.5 -19t18.5 -47q0 -26 -18.5 -44.5t-46.5 -18.5t-47 18.5t-19 44.5zM170 1352h63l-4 -1055h-55z" />
<glyph unicode="&#x22;" horiz-adv-x="557" d="M137 1032v365h68l-12 -365h-56zM360 1032v365h68l-12 -365h-56z" />
<glyph unicode="#" horiz-adv-x="1288" d="M74 424v51h284l66 420h-283v51h289l64 406h57l-64 -406h390l63 406h55l-63 -406h282v-51h-288l-66 -420h287v-51h-295l-66 -424h-55l66 424h-391l-66 -424h-55l65 424h-276zM414 475h391l65 420h-391z" />
<glyph unicode="$" horiz-adv-x="1071" d="M102 289q-2 39 15 117h53q-17 -61 -14 -109q9 -117 98 -190t244 -82v634q-202 65 -286.5 146t-84.5 205q0 161 100.5 259t270.5 107v129h65v-131q175 -11 277.5 -113.5t93.5 -259.5h-55q9 136 -76 224.5t-240 97.5v-629h2q219 -66 311.5 -157.5t92.5 -217.5 q0 -152 -110.5 -246t-295.5 -102v-129h-65v129q-176 9 -282 96.5t-114 221.5zM186 1012q0 -103 69 -168.5t243 -126.5v608q-146 -8 -229 -90.5t-83 -222.5zM563 25q162 8 255 85t93 207q0 103 -80.5 182t-267.5 140v-614z" />
<glyph unicode="%" horiz-adv-x="1593" d="M61 1010q0 143 103 244.5t248 101.5t247.5 -101.5t102.5 -244.5q0 -145 -102.5 -248t-247.5 -103t-248 103t-103 248zM113 1010q0 -123 87.5 -211t211.5 -88q123 0 211 88t88 211q0 122 -88 209.5t-211 87.5q-124 0 -211.5 -87.5t-87.5 -209.5zM313 0l904 1352h63 l-903 -1352h-64zM864 344q0 145 103.5 246.5t249.5 101.5q145 0 246.5 -101.5t101.5 -246.5t-101.5 -246.5t-246.5 -101.5q-146 0 -249.5 101.5t-103.5 246.5zM915 344q0 -123 88.5 -210t213.5 -87q123 0 211 87t88 210t-88 210t-211 87q-125 0 -213.5 -87t-88.5 -210z" />
<glyph unicode="&#x26;" horiz-adv-x="1318" d="M102 463q0 154 91 278t233 174l-23 39q-57 93 -57 203q0 113 80 193t192 80q114 0 193.5 -80t79.5 -193h-57q0 89 -63.5 152t-152.5 63t-152 -63t-63 -152q0 -91 54 -184q87 -133 463 -772q90 118 90 262v223h188v-57h-131v-166q0 -176 -117 -316l54 -90h213v-57h-246 l-62 104q-137 -124 -323 -124q-131 0 -242.5 64.5t-176.5 175.5t-65 243zM160 463q0 -176 125.5 -301t300.5 -125q171 0 293 119l-422 708q-130 -42 -213.5 -153t-83.5 -248z" />
<glyph unicode="'" horiz-adv-x="333" d="M137 1032v365h68l-12 -365h-56z" />
<glyph unicode="(" horiz-adv-x="546" d="M106 643q0 264 92 503.5t259 432.5l45 -43q-159 -184 -246.5 -413t-87.5 -480q0 -257 90 -488.5t254 -416.5l-47 -41q-171 193 -265 435.5t-94 510.5z" />
<glyph unicode=")" horiz-adv-x="546" d="M35 -262q164 185 254 416.5t90 488.5q0 251 -87.5 480t-246.5 413l45 43q167 -192 258.5 -432t91.5 -504q0 -269 -93.5 -511t-264.5 -435z" />
<glyph unicode="*" horiz-adv-x="1062" d="M92 1157l17 51l395 -125v412h55v-414l395 127l17 -51l-396 -129l244 -336l-43 -30l-246 331l-241 -331l-45 30l241 336z" />
<glyph unicode="+" horiz-adv-x="1228" d="M133 618v58h451v448h59v-448h451v-58h-451v-460h-59v460h-451z" />
<glyph unicode="," horiz-adv-x="378" d="M74 -176q114 39 133 162h-8q-28 0 -47 19t-19 48q0 28 19 47t47 19q27 0 45.5 -19t21.5 -49q10 -107 -38.5 -179t-135.5 -95z" />
<glyph unicode="-" horiz-adv-x="886" d="M145 518v62h596v-62h-596z" />
<glyph unicode="." horiz-adv-x="378" d="M115 53q0 31 21.5 52.5t53.5 21.5q31 0 52.5 -21.5t21.5 -52.5q0 -32 -21.5 -54t-52.5 -22q-32 0 -53.5 22t-21.5 54z" />
<glyph unicode="/" horiz-adv-x="905" d="M63 -143l717 1638h62l-717 -1638h-62z" />
<glyph unicode="0" horiz-adv-x="1148" d="M88 676q0 174 24 299t80 216.5t151 136t232 44.5t231.5 -44.5t150 -136t80 -216.5t24.5 -299t-24.5 -299t-80 -216.5t-150 -136t-231.5 -44.5t-232 44.5t-151 136t-80 216.5t-24 299zM152 676q0 -163 20 -277t67.5 -198.5t130.5 -125t205 -40.5q98 0 170.5 27.5t120.5 78 t77.5 131t41.5 177.5t12 227t-12 227t-41.5 177.5t-77.5 131t-120.5 78t-170.5 27.5q-122 0 -205 -40.5t-130.5 -125t-67.5 -198.5t-20 -277z" />
<glyph unicode="1" horiz-adv-x="505" d="M57 1137l281 215h61v-1352h-61v1282l-248 -190z" />
<glyph unicode="2" horiz-adv-x="1056" d="M113 -2l2 33q65 61 167.5 154.5t154.5 141.5t128 121.5t114 117t84.5 103.5t68 105.5t36.5 98.5t15 106q0 147 -94.5 242.5t-243.5 95.5q-156 0 -258 -106t-111 -285l-55 28q12 189 127.5 303.5t296.5 114.5q176 0 286.5 -108.5t110.5 -284.5q0 -66 -14 -125.5 t-56.5 -128t-76 -116t-119 -134t-135.5 -134t-172 -160.5q-87 -81 -133 -124v-2h90h628v-55z" />
<glyph unicode="3" horiz-adv-x="1085" d="M92 293l55 31q26 -135 128 -212t257 -77q166 0 267.5 86.5t101.5 234.5q0 136 -88 215.5t-250 79.5h-190v60h190q145 0 224 83.5t81 217.5q0 142 -87 223.5t-238 81.5q-137 0 -226 -67.5t-124 -186.5l-60 31q45 129 151 203.5t259 74.5q178 0 282.5 -96t104.5 -258 q0 -134 -72 -226.5t-188 -109.5v-2q131 -6 213 -99t82 -229q0 -167 -121.5 -269.5t-313.5 -102.5q-170 0 -287 83.5t-151 229.5z" />
<glyph unicode="4" horiz-adv-x="966" d="M37 406v28l711 918h45v-891h96v-55h-96v-406h-62v406h-694zM131 461h600v770z" />
<glyph unicode="5" horiz-adv-x="997" d="M92 184l51 33q52 -83 138 -131.5t186 -48.5q158 0 270.5 112.5t112.5 270.5t-112.5 269.5t-270.5 111.5q-101 0 -187.5 -48.5t-136.5 -129.5l-49 30l88 699h629v-62h-575l-70 -549q127 121 301 121q183 0 312.5 -129.5t129.5 -312.5q0 -184 -129.5 -313.5t-312.5 -129.5 q-116 0 -215.5 56.5t-159.5 150.5z" />
<glyph unicode="6" horiz-adv-x="1093" d="M109 420q0 104 45 192h-2l376 740l68 2l-285 -561q109 69 238 69q183 0 312.5 -129.5t129.5 -312.5q0 -184 -129.5 -313.5t-312.5 -129.5t-311.5 129.5t-128.5 313.5zM168 420q0 -158 111.5 -270.5t269.5 -112.5t270.5 112.5t112.5 270.5t-112.5 269.5t-270.5 111.5 t-269.5 -111.5t-111.5 -269.5z" />
<glyph unicode="7" horiz-adv-x="921" d="M49 1290v62h850l-592 -1352h-65l567 1290h-760z" />
<glyph unicode="8" horiz-adv-x="1058" d="M102 356q0 80 32 153t101 128.5t164 73.5v2q-63 15 -111 48.5t-75 78t-40 92.5t-13 98q0 146 104 244t266 98q161 0 265 -98t104 -244q0 -50 -13 -98t-40 -92.5t-74 -78t-110 -48.5v-2q98 -20 166.5 -78.5t98 -129t29.5 -147.5q0 -158 -121.5 -267t-304.5 -109 t-305.5 109t-122.5 267zM164 356q0 -138 107 -230.5t259 -92.5t258.5 92.5t106.5 230.5q0 131 -99.5 225.5t-265.5 94.5t-266 -94.5t-100 -225.5zM223 1028q0 -120 81 -202.5t226 -82.5q144 0 226 83t82 202q0 125 -89.5 208t-218.5 83t-218 -82.5t-89 -208.5z" />
<glyph unicode="9" horiz-adv-x="1034" d="M76 936q0 183 129.5 312.5t312.5 129.5t311.5 -129.5t128.5 -312.5q0 -116 -55 -215l-364 -719l-68 -2l285 563q-109 -69 -238 -69q-183 0 -312.5 129.5t-129.5 312.5zM135 936q0 -158 112.5 -269.5t270.5 -111.5t269.5 111.5t111.5 269.5t-111.5 269.5t-269.5 111.5 t-270.5 -111.5t-112.5 -269.5z" />
<glyph unicode=":" horiz-adv-x="430" d="M141 53q0 31 22 52.5t54 21.5q31 0 52.5 -21.5t21.5 -52.5q0 -32 -21.5 -54t-52.5 -22q-32 0 -54 22t-22 54zM141 965q0 31 22 52t54 21q31 0 52.5 -21t21.5 -52q0 -32 -21.5 -54t-52.5 -22q-32 0 -54 22t-22 54z" />
<glyph unicode=";" horiz-adv-x="430" d="M98 -176q117 40 133 162h-8q-28 0 -46.5 19t-18.5 48q0 28 18.5 47t46.5 19q27 0 46 -19t22 -49q10 -107 -38.5 -179t-135.5 -95zM147 963q0 32 21.5 53.5t52.5 21.5q32 0 54 -21.5t22 -53.5q0 -31 -22 -52.5t-54 -21.5q-31 0 -52.5 21.5t-21.5 52.5z" />
<glyph unicode="&#x3c;" horiz-adv-x="1228" d="M172 578v71l922 473v-67l-867 -441l867 -442v-68z" />
<glyph unicode="=" horiz-adv-x="1228" d="M164 401v56h901v-56h-901zM164 817v55h901v-55h-901z" />
<glyph unicode="&#x3e;" horiz-adv-x="1228" d="M135 104v68l866 442l-866 441v67l922 -473v-71z" />
<glyph unicode="?" horiz-adv-x="1015" d="M86 1145q58 105 164 168t231 63q121 0 224 -60t163 -163t60 -225q0 -179 -123 -309.5t-299 -141.5v-221h-60v276l17 3h12h4q163 2 278 115.5t115 277.5q0 163 -114 277t-277 114q-112 0 -203 -55t-143 -148zM401 53q0 31 22 52.5t54 21.5q31 0 52.5 -21.5t21.5 -52.5 q0 -32 -21.5 -54t-52.5 -22q-32 0 -54 22t-22 54z" />
<glyph unicode="@" horiz-adv-x="1943" d="M111 492q0 185 65 345t180.5 275t280 180.5t356.5 65.5q174 0 325 -54t264 -154t178 -253.5t65 -341.5q0 -153 -42.5 -280.5t-109 -197t-139.5 -69.5q-53 0 -87.5 37t-41.5 105v96q-44 -142 -162 -222.5t-278 -80.5q-218 0 -359 144.5t-141 387.5q0 121 38.5 222 t105.5 168.5t158.5 105t197.5 37.5q158 0 276 -80.5t164 -220.5v219h68v-736q0 -61 18 -94t51 -33t72.5 38.5t74 103t57.5 160.5t23 198q0 171 -61.5 312t-167.5 234t-247.5 143.5t-303.5 50.5q-179 0 -332.5 -61.5t-260.5 -169t-167.5 -257t-60.5 -321.5 q0 -231 104.5 -419.5t288.5 -295.5t410 -107q199 0 379 86l22 -51q-181 -88 -393 -88q-246 0 -445 113.5t-311 313t-112 446.5zM524 475q0 -218 126 -347.5t317 -129.5q190 0 314 127.5t124 341.5v16q0 212 -124 340.5t-316 128.5q-190 0 -315.5 -130t-125.5 -347z" />
<glyph unicode="A" d="M27 0l551 1352h69l551 -1352h-65l-179 436h-684l-178 -436h-65zM293 492h639l-279 682l-41 114h-2l-39 -110z" />
<glyph unicode="B" horiz-adv-x="1273" d="M203 0v1352h491q210 0 317 -88.5t107 -257.5q0 -266 -260 -322v-2q142 -20 220.5 -106.5t78.5 -225.5q0 -168 -119 -259t-344 -91h-491zM264 55h438q193 0 292.5 76t99.5 223q0 299 -392 299h-438v-598zM264 711h430q361 0 361 290q0 146 -91 220.5t-270 74.5h-430v-585z " />
<glyph unicode="C" horiz-adv-x="1490" d="M96 676q0 144 56 275t151 225t226 150t274 56q162 0 304.5 -68.5t240.5 -189.5l-48 -41q-91 111 -220 174.5t-277 63.5q-175 0 -323 -86.5t-234 -235t-86 -323.5t86 -323.5t234 -235t323 -86.5q148 0 277 63t220 174l50 -39q-100 -122 -242.5 -191t-304.5 -69 q-144 0 -275 56t-225.5 150.5t-150.5 225.5t-56 275z" />
<glyph unicode="D" horiz-adv-x="1433" d="M188 0v1352h482q160 0 288 -49t210.5 -137.5t126.5 -209t44 -264.5q0 -152 -43.5 -278.5t-126.5 -218.5t-211 -143.5t-288 -51.5h-482zM250 55h424q192 0 329.5 83.5t205 225.5t67.5 328q0 130 -39.5 239.5t-113.5 191t-189.5 127.5t-259.5 46h-424v-1241z" />
<glyph unicode="E" horiz-adv-x="1210" d="M172 0v1352h907v-56h-846v-614h760v-57h-760v-570h879v-55h-940z" />
<glyph unicode="F" horiz-adv-x="1165" d="M199 0v1352h905v-56h-844v-614h756v-57h-756v-625h-61z" />
<glyph unicode="G" horiz-adv-x="1554" d="M94 676q0 189 93.5 349.5t254 253.5t349.5 93q186 0 339 -85.5t246 -237.5l-51 -33q-86 137 -226.5 216t-307.5 79q-174 0 -319.5 -84.5t-229.5 -230.5t-84 -320q0 -173 84 -318.5t229.5 -230t319.5 -84.5q205 0 366.5 116t228.5 304h-456v63h538q-51 -238 -240.5 -392 t-436.5 -154q-189 0 -349.5 93t-254 253.5t-93.5 349.5z" />
<glyph unicode="H" horiz-adv-x="1433" d="M203 0v1352h61v-670h905v670h62v-1352h-62v625h-905v-625h-61z" />
<glyph unicode="I" horiz-adv-x="501" d="M219 0v1352h64v-1352h-64z" />
<glyph unicode="J" horiz-adv-x="1034" d="M66 438l61 -2v-49q23 -352 317 -352q158 0 245 91.5t99 264.5q5 25 5 64v897h61v-908q0 -222 -107 -343t-303 -121q-178 0 -270.5 106t-105.5 293q-2 18 -2 59z" />
<glyph unicode="K" horiz-adv-x="1196" d="M203 0v1352h61v-797l783 797h83l-532 -543l549 -809h-76l-518 764l-289 -295v-469h-61z" />
<glyph unicode="L" horiz-adv-x="1136" d="M199 0v1352h61v-1297h836v-55h-897z" />
<glyph unicode="M" horiz-adv-x="1619" d="M197 0v1352h88l483 -1159l41 -121h2l41 118l483 1162h88v-1352h-59v1114l6 170h-2l-526 -1284h-64l-526 1284h-2l6 -170v-1114h-59z" />
<glyph unicode="N" horiz-adv-x="1370" d="M172 0v1352h80l815 -1166l74 -120l-2 137v1149h59v-1352h-80l-817 1165l-72 121h-2l4 -137v-1149h-59z" />
<glyph unicode="O" horiz-adv-x="1601" d="M94 676q0 144 56 275t151 225t226 150t274 56q192 0 354.5 -94.5t257 -257t94.5 -354.5q0 -144 -56 -275t-150.5 -225.5t-225.5 -150.5t-274 -56q-144 0 -275 56t-225.5 150.5t-150.5 225.5t-56 275zM156 676q0 -174 87 -322.5t235.5 -235.5t322.5 -87t322.5 87 t235.5 235.5t87 322.5q0 175 -87 323.5t-235.5 235t-322.5 86.5t-322.5 -86.5t-235.5 -235t-87 -323.5z" />
<glyph unicode="P" horiz-adv-x="1259" d="M203 0v1352h493q197 0 325 -120t128 -296q0 -179 -129 -308.5t-324 -129.5h-432v-498h-61zM264 555h432q172 0 280.5 112t108.5 269q0 154 -107.5 257t-281.5 103h-432v-741z" />
<glyph unicode="Q" horiz-adv-x="1607" d="M94 676q0 144 56 275t151 225t226 150t274 56q192 0 354.5 -94.5t257 -257t94.5 -354.5q0 -163 -68.5 -304.5t-189.5 -240.5l203 -272l-49 -37l-203 270q-181 -123 -399 -123q-144 0 -275 56t-225.5 150.5t-150.5 225.5t-56 275zM156 676q0 -174 87 -322.5t235.5 -235.5 t322.5 -87q201 0 360 112l-74 99l52 37l73 -99q109 92 171.5 221t62.5 275q0 175 -87 323.5t-235.5 235t-322.5 86.5t-322.5 -86.5t-235.5 -235t-87 -323.5z" />
<glyph unicode="R" horiz-adv-x="1296" d="M203 0v1352h493q197 0 325 -120t128 -296q0 -139 -81.5 -253t-215.5 -161l344 -522h-72l-336 506q-39 -8 -92 -8h-432v-498h-61zM264 555h432q172 0 280.5 112t108.5 269q0 154 -107.5 257t-281.5 103h-432v-741z" />
<glyph unicode="S" horiz-adv-x="1101" d="M113 289q-1 8 -1 17q0 45 13 100h57q-14 -57 -15 -99q0 -5 1 -10q11 -122 107 -191t268 -69q176 0 275.5 72.5t99.5 203.5q0 42 -12 79t-29 64.5t-48.5 53.5t-57.5 42.5t-70 35.5t-72.5 29.5t-77.5 27.5q-76 25 -121.5 42t-99.5 42t-84 50t-58 59.5t-39.5 78t-11.5 97.5 q0 164 109 262t291 98q188 0 302 -104q106 -96 106 -245q0 -12 -1 -24h-59q1 13 1 25q0 126 -86 206q-94 88 -261 87q-160 0 -250 -79.5t-90 -221.5q0 -39 8 -71t20.5 -57t39 -47.5t51.5 -39t70.5 -36t83.5 -33.5t103 -36q49 -16 80.5 -27.5t78 -32.5t77 -40t65 -49 t54.5 -62t33.5 -75t13.5 -93q0 -156 -118 -247.5t-318 -91.5q-192 0 -307.5 87t-120.5 222z" />
<glyph unicode="T" horiz-adv-x="1167" d="M45 1296v56h1077v-56h-508v-1296h-61v1296h-508z" />
<glyph unicode="U" horiz-adv-x="1355" d="M164 485v867h61v-856q0 -222 118 -341.5t335 -119.5t334.5 119.5t117.5 341.5v856h62v-867q0 -243 -134 -374t-380 -131q-244 0 -379 131t-135 374z" />
<glyph unicode="V" horiz-adv-x="1202" d="M35 1352h65l439 -1121l63 -170l62 168l438 1123h65l-528 -1352h-76z" />
<glyph unicode="W" horiz-adv-x="1875" d="M49 1352h66l409 -1289l377 1289h76l377 -1291l409 1291h64l-434 -1352h-78l-295 995l-80 279h-2l-80 -279l-295 -995h-78z" />
<glyph unicode="X" horiz-adv-x="1120" d="M39 0l489 698l-446 654h74l411 -602l420 602h74l-459 -656l475 -696h-73l-441 643l-448 -643h-76z" />
<glyph unicode="Y" horiz-adv-x="1112" d="M47 1352h74l434 -762l172 299l264 463h72l-477 -828v-524h-62v524z" />
<glyph unicode="Z" horiz-adv-x="1161" d="M55 0l932 1296h-883v56h992l-934 -1297h936v-55h-1043z" />
<glyph unicode="[" horiz-adv-x="575" d="M156 -344v1839h393v-53h-336v-1733h336v-53h-393z" />
<glyph unicode="\" horiz-adv-x="745" d="M-96 1495h61l717 -1638h-61z" />
<glyph unicode="]" horiz-adv-x="575" d="M27 -291h335v1733h-335v53h393v-1839h-393v53z" />
<glyph unicode="^" horiz-adv-x="1095" d="M68 727l448 768h64l448 -768h-67l-414 713l-414 -713h-65z" />
<glyph unicode="_" horiz-adv-x="1030" d="M-4 -199h1040v-55h-1040v55z" />
<glyph unicode="`" horiz-adv-x="1095" d="M297 1503h61l179 -309h-60z" />
<glyph unicode="a" horiz-adv-x="1122" d="M111 260q0 119 84.5 190.5t271.5 104.5q126 27 422 59v91q0 132 -92 207t-244 75q-292 0 -375 -227l-47 35q45 123 153 186t269 63q179 0 288 -87t109 -248v-545v-168h-61v180v6q-48 -96 -173.5 -149t-258.5 -53q-160 0 -253 79t-93 201zM172 260q0 -96 79.5 -161.5 t215.5 -65.5q64 0 134 17.5t136 50t109 89.5t43 127v240q-301 -30 -395 -49q-171 -30 -246.5 -91t-75.5 -157z" />
<glyph unicode="b" horiz-adv-x="1239" d="M154 0v1495h61v-745q47 137 164 215.5t274 78.5q217 0 358.5 -145t141.5 -387q0 -243 -141 -387.5t-359 -144.5q-160 0 -278 80.5t-162 222.5v-283h-59zM215 461q13 -196 134.5 -311t301.5 -115q191 0 317 129.5t126 347.5q0 217 -125.5 347t-315.5 130 q-180 0 -301.5 -114t-136.5 -304v-106v-4z" />
<glyph unicode="c" horiz-adv-x="1142" d="M90 512q0 144 71 266.5t193.5 194t266.5 71.5q136 0 254 -65.5t190 -175.5l-47 -31q-64 99 -168.5 157t-226.5 58q-197 0 -334 -139t-137 -336t137 -335t334 -138q122 0 224.5 55.5t166.5 153.5l51 -31q-73 -110 -190.5 -173.5t-253.5 -63.5q-144 0 -266.5 71 t-193.5 193.5t-71 267.5z" />
<glyph unicode="d" horiz-adv-x="1251" d="M86 512q0 242 141.5 387t358.5 145q157 0 274 -78.5t164 -215.5v745h61v-1495h-57v291q-42 -146 -160.5 -228.5t-281.5 -82.5q-218 0 -359 144.5t-141 387.5zM145 512q0 -218 126 -347.5t317 -129.5q180 0 302 115.5t134 310.5v4v106q-15 190 -136.5 304t-301.5 114 q-190 0 -315.5 -130t-125.5 -347z" />
<glyph unicode="e" horiz-adv-x="1191" d="M119 512q0 241 139 386.5t360 145.5q209 0 342.5 -145t133.5 -381q0 -29 -2 -37h-914q10 -207 136 -327.5t317 -120.5q125 0 233.5 58t151.5 155l51 -27q-55 -111 -174 -175t-262 -64q-226 0 -369 143t-143 389zM178 535h860q-7 209 -122.5 332.5t-297.5 123.5 q-188 0 -310.5 -124.5t-129.5 -331.5z" />
<glyph unicode="f" horiz-adv-x="759" d="M61 971v53h205v170q0 146 75.5 228.5t211.5 82.5q98 0 158 -53v-63q-26 26 -69 43.5t-87 17.5q-106 0 -166.5 -68t-60.5 -192v-166h372v-53h-372v-971h-62v971h-205z" />
<glyph unicode="g" horiz-adv-x="1132" d="M84 -166q0 83 57.5 142t155.5 79q-98 42 -98 142q0 53 28.5 91.5t81.5 53.5q-81 54 -126.5 138t-45.5 177q0 100 50.5 188t146 143.5t215.5 55.5q148 0 258 -86l149 160l37 -39l-147 -155q108 -111 108 -267q0 -99 -49.5 -186.5t-143.5 -143t-212 -55.5q-99 0 -182 39 q-109 -17 -109 -110q0 -53 38 -83t144 -30h256q156 0 247 -63t91 -170q0 -131 -133.5 -213t-353.5 -82q-212 0 -337.5 75.5t-125.5 198.5zM141 -158q0 -103 113 -166t299 -63q190 0 306 66t116 171q0 84 -76.5 134.5t-212.5 50.5h-262q-126 0 -204.5 -54t-78.5 -139z M201 657q0 -131 97.5 -231t250.5 -100q101 0 181 48.5t121.5 123.5t41.5 159q0 132 -96.5 233t-247.5 101q-153 0 -250.5 -100.5t-97.5 -233.5z" />
<glyph unicode="h" horiz-adv-x="1161" d="M154 0v1495h61v-713q43 122 151.5 193.5t254.5 71.5q178 0 281.5 -98t103.5 -277v-670h-62v653q0 163 -89 250.5t-243 87.5q-166 0 -281.5 -112.5t-115.5 -278.5v-602h-61z" />
<glyph unicode="i" horiz-adv-x="448" d="M154 1282q0 28 20 50t49 22t50.5 -22t21.5 -50q0 -29 -21.5 -49.5t-50.5 -20.5t-49 20.5t-20 49.5zM193 0v1024h61v-1024h-61z" />
<glyph unicode="j" horiz-adv-x="407" d="M-45 -383q100 0 159.5 69.5t59.5 192.5v1145h62v-1149q0 -148 -78.5 -231.5t-202.5 -83.5v57zM135 1282q0 30 20.5 52t49.5 22t50 -22t21 -52q0 -29 -21 -49.5t-50 -20.5t-49.5 20.5t-20.5 49.5z" />
<glyph unicode="k" horiz-adv-x="1005" d="M162 0v1495h61v-1094l660 623h84l-439 -414l453 -610h-76l-424 567l-258 -245v-322h-61z" />
<glyph unicode="l" horiz-adv-x="415" d="M178 0v1495h62v-1495h-62z" />
<glyph unicode="m" horiz-adv-x="1970" d="M178 0v1024h58l2 -240q44 119 153 189.5t250 70.5q148 0 247 -71t126 -203q37 125 151 202t262 77q174 0 278.5 -98.5t104.5 -276.5v-670h-61v662q0 157 -89 242t-241 85q-166 0 -280.5 -112t-114.5 -273v-608h-61v664q0 156 -88.5 241.5t-241.5 85.5q-164 0 -278.5 -112 t-114.5 -277v-602h-62z" />
<glyph unicode="n" horiz-adv-x="1181" d="M166 0v1024h55l2 -246q43 122 153 194t257 72q177 0 281 -98t104 -276v-670h-62v653q0 163 -88.5 250.5t-242.5 87.5q-167 0 -282.5 -112t-115.5 -279v-600h-61z" />
<glyph unicode="o" horiz-adv-x="1251" d="M94 512q0 144 71 266.5t194 194t268 71.5q144 0 266.5 -71.5t194 -194t71.5 -266.5q0 -145 -71.5 -267.5t-194 -193.5t-266.5 -71q-145 0 -268 71t-194 193.5t-71 267.5zM156 512q0 -127 63 -235t171.5 -171t236.5 -63q127 0 235.5 63t172 171t63.5 235t-63.5 236.5 t-172 174t-235.5 64.5q-194 0 -332.5 -140.5t-138.5 -334.5z" />
<glyph unicode="p" horiz-adv-x="1230" d="M141 -430v1454h58v-291q42 146 160.5 228.5t281.5 82.5q218 0 359 -144.5t141 -387.5q0 -242 -141.5 -387t-358.5 -145q-157 0 -274 78.5t-164 215.5v-704h-62zM203 453q15 -190 136.5 -304t301.5 -114q190 0 315 130t125 347q0 218 -125.5 347.5t-316.5 129.5 q-178 0 -299.5 -113.5t-136.5 -306.5v-116z" />
<glyph unicode="q" horiz-adv-x="1243" d="M88 512q0 242 141.5 387t358.5 145q160 0 279 -82.5t163 -224.5v287h57v-1454h-61v706q-46 -139 -162.5 -217.5t-275.5 -78.5q-218 0 -359 144.5t-141 387.5zM147 512q0 -218 126 -347.5t317 -129.5q178 0 299.5 113t136.5 305v102v4q-10 195 -132.5 312.5t-305.5 117.5 q-190 0 -315.5 -130t-125.5 -347z" />
<glyph unicode="r" horiz-adv-x="776" d="M166 0v1024h61v-233q39 116 126 184.5t206 68.5q91 0 137 -43l-20 -53q-24 21 -52.5 31t-78.5 10q-131 0 -224.5 -119.5t-93.5 -283.5v-586h-61z" />
<glyph unicode="s" horiz-adv-x="1011" d="M92 223l53 33q29 -108 129 -165.5t248 -57.5q155 0 243.5 61.5t88.5 165.5q0 31 -9.5 56.5t-23 44t-40.5 35t-49.5 27t-63 22t-68.5 18t-78 16.5q-39 8 -64 13t-61 14t-59.5 17.5t-53.5 21.5t-49.5 26.5t-39.5 32.5t-31.5 41t-19 49.5t-7.5 59.5q0 128 107 209t286 81 q148 0 247 -61.5t128 -191.5l-53 -31q-26 116 -110 173.5t-216 57.5q-145 0 -236 -63.5t-91 -165.5q0 -26 7 -48.5t16.5 -40t28.5 -33.5t35.5 -27t44 -22t47.5 -17.5t53.5 -14.5t53.5 -12.5t56 -11.5q41 -8 63.5 -13t60 -14.5t58.5 -17.5t51.5 -20.5t48 -26t37.5 -32 t30.5 -40t17.5 -48.5t7 -59q0 -132 -107 -208t-290 -76q-164 0 -277 62t-149 181z" />
<glyph unicode="t" horiz-adv-x="817" d="M70 971v53h204v281h62v-281h391v-53h-391v-707q0 -229 199 -229q96 0 178 69l26 -43q-35 -36 -91 -58.5t-120 -22.5q-123 0 -188.5 70t-65.5 208v713h-204z" />
<glyph unicode="u" horiz-adv-x="1146" d="M154 344v680h61v-668q0 -158 81 -240.5t230 -82.5q96 0 175 35.5t127 92t74 123t26 132.5v608h61v-1024h-59v242q-43 -121 -153 -191.5t-261 -70.5q-170 0 -266 93.5t-96 270.5z" />
<glyph unicode="v" horiz-adv-x="1001" d="M39 1024h70l393 -956l393 956h66l-429 -1024h-63z" />
<glyph unicode="w" horiz-adv-x="1640" d="M68 1024h67l309 -946l344 946h64l344 -946l309 946h68l-344 -1024h-62l-348 944l-346 -944h-61z" />
<glyph unicode="x" horiz-adv-x="1001" d="M39 0l412 530l-396 494h76l361 -449l346 449h73l-379 -489l426 -535h-73l-393 487l-381 -487h-72z" />
<glyph unicode="y" horiz-adv-x="1005" d="M0 -371l27 52q47 -68 149 -68q78 0 132.5 44t99.5 157l75 184l-110 260l-324 766h70l352 -850l43 -106l43 112l342 844h68l-504 -1223q-56 -135 -121.5 -188t-167.5 -53q-123 0 -174 69z" />
<glyph unicode="z" horiz-adv-x="985" d="M55 0l754 969h-737v55h848l-752 -971h754v-53h-867z" />
<glyph unicode="{" horiz-adv-x="563" d="M20 557v51q113 0 173.5 51t60.5 146v481q0 112 66 173t192 61l4 -52q-98 0 -150.5 -47t-52.5 -133v-485q0 -79 -39.5 -136t-113.5 -83q74 -28 113.5 -85.5t39.5 -136.5v-487q0 -85 52.5 -132.5t150.5 -47.5l-4 -51q-126 0 -192 61t-66 172v483q0 95 -60.5 146t-173.5 51z " />
<glyph unicode="|" horiz-adv-x="366" d="M156 -344v1839h55v-1839h-55z" />
<glyph unicode="}" horiz-adv-x="563" d="M47 -305q98 0 150.5 47.5t52.5 132.5v487q0 79 39.5 136.5t113.5 85.5q-74 26 -113.5 83t-39.5 136v485q0 86 -52.5 133t-150.5 47l4 52q126 0 192 -61t66 -173v-481q0 -95 60.5 -146t173.5 -51v-51q-113 0 -173.5 -51t-60.5 -146v-483q0 -111 -66 -172t-192 -61z" />
<glyph unicode="~" horiz-adv-x="999" d="M84 578q27 217 211 217q50 0 96 -15.5t81.5 -38t70 -45t75.5 -38t84 -15.5q66 0 103 40.5t51 121.5h59q-27 -217 -208 -217q-51 0 -97.5 15.5t-82 38t-70 44.5t-76 37.5t-84.5 15.5q-66 0 -103 -40t-51 -121h-59z" />
<glyph unicode="&#xa1;" horiz-adv-x="387" d="M127 973q0 26 19 44.5t47 18.5t46.5 -18.5t18.5 -44.5q0 -28 -18.5 -47t-46.5 -19t-47 19t-19 47zM162 -328l4 1055h55l4 -1055h-63z" />
<glyph unicode="&#xa2;" horiz-adv-x="1103" d="M57 512q0 209 142.5 362t351.5 168v187h53v-185q133 -3 247.5 -68t184.5 -173l-45 -29q-63 97 -165 155.5t-222 61.5v-958q118 3 218.5 60t166.5 153l47 -29q-72 -108 -185.5 -172.5t-246.5 -67.5v-182h-53v185q-209 15 -351.5 168t-142.5 364zM111 512q0 -186 127 -324 t313 -153v954q-186 -15 -313 -153t-127 -324z" />
<glyph unicode="&#xa3;" horiz-adv-x="1187" d="M68 123q0 67 59 109t158 42q82 0 140.5 -26.5t121.5 -75.5q41 68 41 152q0 74 -25.5 137t-91.5 149h-287v52h246q-78 101 -108.5 173t-30.5 154q0 172 110.5 277.5t290.5 105.5q152 0 248.5 -80t118.5 -221l-55 -27q-15 124 -99.5 198.5t-214.5 74.5q-156 0 -248 -87.5 t-92 -234.5q0 -75 31 -145t111 -178l8 -10h424v-52h-387q57 -81 80.5 -145t23.5 -135q0 -103 -55 -189q46 -37 74.5 -56t79 -36.5t106.5 -17.5q218 0 221 221h51q0 -137 -70.5 -204.5t-195.5 -67.5q-48 0 -90.5 9.5t-80 29.5t-63 38t-61.5 47q-111 -124 -289 -124 q-92 0 -146 39t-54 104zM125 123q0 -44 40.5 -70t106.5 -26q160 0 248 106q-60 45 -112.5 68.5t-120.5 23.5q-74 0 -118 -28t-44 -74z" />
<glyph unicode="&#xa4;" horiz-adv-x="1251" d="M127 217l205 205q-84 105 -84 258q0 148 80 252l-201 201l41 43l201 -201q103 92 258 92t258 -92l200 201l41 -41l-202 -205q77 -99 77 -250q0 -157 -81 -258l206 -207l-41 -39l-204 203q-104 -90 -254 -90q-152 0 -256 90l-203 -203zM309 680q0 -153 87.5 -244.5 t230.5 -91.5t228 91t85 245q0 151 -85.5 241.5t-227.5 90.5q-143 0 -230.5 -91t-87.5 -241z" />
<glyph unicode="&#xa5;" horiz-adv-x="1177" d="M82 1352h72l434 -760h4l432 760h72l-459 -789l39 2h358v-49h-418v-209h418v-47h-418v-260h-55v260h-416v47h416v209h-416v49h359l37 -2z" />
<glyph unicode="&#xa6;" horiz-adv-x="395" d="M170 -344v747h55v-747h-55zM170 748v747h55v-747h-55z" />
<glyph unicode="&#xa7;" horiz-adv-x="1116" d="M88 600q0 93 66 159t172 99q-68 38 -98.5 92.5t-30.5 132.5q0 123 102.5 206t282.5 83q292 0 372 -180l-45 -37q-65 164 -327 164q-153 0 -238.5 -64.5t-85.5 -167.5q0 -109 85.5 -167.5t301.5 -90.5q228 -33 319 -97t91 -185q0 -94 -66.5 -160.5t-173.5 -97.5 q70 -37 101.5 -92.5t31.5 -133.5q0 -123 -102 -205.5t-281 -82.5q-292 0 -377 180l48 37q64 -164 329 -164q150 0 236 64.5t86 166.5q0 109 -85.5 167.5t-301.5 90.5q-228 33 -320 97.5t-92 185.5zM150 602q0 -95 79.5 -146t284.5 -83q128 -19 231 -54q49 12 90.5 30 t78.5 45t58 66t21 85q0 95 -79 147t-283 82q-156 23 -236 53q-105 -25 -175 -81t-70 -144z" />
<glyph unicode="&#xa8;" horiz-adv-x="1095" d="M305 1278q0 25 18 42t46 17q23 0 40 -17t17 -42q0 -26 -16.5 -42.5t-40.5 -16.5q-28 0 -46 16.5t-18 42.5zM686 1278q0 25 19 42t45 17q24 0 41.5 -17.5t17.5 -41.5q0 -26 -17.5 -42.5t-41.5 -16.5q-27 0 -45.5 16.5t-18.5 42.5z" />
<glyph unicode="&#xa9;" horiz-adv-x="1632" d="M129 676q0 142 55 271t148 222t222 148t271 55q189 0 349.5 -93t254 -253.5t93.5 -349.5t-93.5 -349.5t-254 -253.5t-349.5 -93q-142 0 -271 55t-222 148t-148 222t-55 271zM182 676q0 -174 86.5 -322t234.5 -234.5t322 -86.5t322 86.5t234.5 234.5t86.5 322t-86.5 322 t-234.5 234.5t-322 86.5t-322 -86.5t-234.5 -234.5t-86.5 -322zM371 670q0 190 133.5 323t322.5 133q119 0 221 -56t164 -152l-43 -27q-55 88 -145.5 137t-196.5 49q-167 0 -286 -119t-119 -286q0 -169 119 -288.5t286 -119.5q104 0 193.5 49t146.5 136l43 -29 q-63 -94 -164 -149.5t-219 -55.5q-189 0 -322.5 133t-133.5 322z" />
<glyph unicode="&#xaa;" horiz-adv-x="724" d="M59 836q0 80 62.5 128.5t195.5 71.5l224 39v60q0 85 -52 132.5t-147 47.5q-90 0 -145.5 -34t-83.5 -107l-41 20q25 80 94.5 124t175.5 44q120 0 187 -57.5t67 -165.5v-344q0 -82 66 -82q33 0 53 10l-2 -41q-28 -14 -62 -14q-47 0 -76.5 29.5t-29.5 97.5 q-30 -60 -104 -93.5t-162 -33.5q-102 0 -161 44t-59 124zM68 446v48h618v-48h-618zM115 838q0 -60 45 -91.5t127 -31.5q57 0 113 19t98.5 62t42.5 101v137l-203 -37q-118 -21 -170.5 -59.5t-52.5 -99.5z" />
<glyph unicode="&#xab;" horiz-adv-x="819" d="M92 543l287 401h72l-289 -401l289 -402h-72zM360 543l287 401h72l-289 -401l289 -402h-72z" />
<glyph unicode="&#xac;" horiz-adv-x="1228" d="M145 618v58h938v-336h-61v278h-877z" />
<glyph unicode="&#xad;" horiz-adv-x="886" d="M145 518v62h596v-62h-596z" />
<glyph unicode="&#xae;" horiz-adv-x="1617" d="M113 676q0 142 55 271t148 222t222 148t271 55t271 -55t222 -148t148 -222t55 -271t-55 -271t-148 -222t-222 -148t-271 -55t-271 55t-222 148t-148 222t-55 271zM166 676q0 -174 86.5 -322t234.5 -234.5t322 -86.5t322 86.5t234.5 234.5t86.5 322t-86.5 322 t-234.5 234.5t-322 86.5t-322 -86.5t-234.5 -234.5t-86.5 -322zM541 293v758h315q123 0 188.5 -55t65.5 -160q0 -92 -52.5 -146t-152.5 -65l217 -332h-61l-213 330h-252v-330h-55zM596 666h260q199 3 199 170q0 170 -199 170h-260v-340z" />
<glyph unicode="&#xaf;" horiz-adv-x="1095" d="M240 1235v53h616v-53h-616z" />
<glyph unicode="&#xb0;" horiz-adv-x="907" d="M203 1122q0 103 74 175.5t178 72.5q103 0 176.5 -72.5t73.5 -175.5t-73.5 -176.5t-176.5 -73.5q-104 0 -178 73.5t-74 176.5zM254 1122q0 -82 59 -140t142 -58t141.5 58t58.5 140t-58.5 140.5t-141.5 58.5t-142 -58.5t-59 -140.5z" />
<glyph unicode="&#xb1;" horiz-adv-x="1228" d="M145 0v55h938v-55h-938zM145 737v56h441v489h57v-489h440v-56h-440v-497h-57v497h-441z" />
<glyph unicode="&#xb2;" horiz-adv-x="604" d="M47 680l2 20q12 12 36 34q78 74 115.5 110t96 95t86.5 94t59.5 80t43.5 81t12 70q0 91 -51.5 144.5t-137.5 53.5q-93 0 -149.5 -60.5t-61.5 -158.5l-47 14q9 115 78.5 183.5t181.5 68.5q104 0 170 -66.5t66 -178.5q0 -46 -19 -95.5t-46.5 -92.5t-85 -105.5t-106.5 -110 t-138 -131.5h38h363v-47z" />
<glyph unicode="&#xb3;" horiz-adv-x="643" d="M37 862l49 23q37 -166 221 -166q90 0 147.5 47t57.5 133q0 79 -51 124.5t-146 45.5h-53v45h51q84 0 131.5 48.5t47.5 121.5q0 81 -50 126.5t-137 45.5q-77 0 -128 -38t-66 -105l-52 22q23 79 88 124.5t156 45.5q116 0 181 -60.5t65 -156.5q0 -146 -143 -194v-4 q70 -11 115.5 -64.5t45.5 -130.5q0 -103 -73.5 -164t-190.5 -61q-107 0 -175.5 51t-90.5 141z" />
<glyph unicode="&#xb4;" horiz-adv-x="1095" d="M559 1194l178 309h62l-181 -309h-59z" />
<glyph unicode="&#xb5;" horiz-adv-x="1140" d="M154 -430v1454h61v-668q0 -157 84.5 -240t226.5 -83q169 0 283 107t119 261v623h61v-1024h-55l-4 242q-42 -119 -152.5 -190.5t-261.5 -71.5q-103 0 -181.5 46t-119.5 134v-590h-61z" />
<glyph unicode="&#xb6;" horiz-adv-x="1110" d="M61 922q0 194 134.5 312t355.5 118h393v-1557h-55v1503h-281v-1503h-59v697q-220 0 -354 118t-134 312zM121 922q0 -172 116.5 -274.5t311.5 -102.5v753q-195 0 -311.5 -102.5t-116.5 -273.5z" />
<glyph unicode="&#xb7;" horiz-adv-x="399" d="M125 737q0 31 22 52.5t54 21.5q31 0 52 -21.5t21 -52.5q0 -32 -21 -53.5t-52 -21.5q-32 0 -54 21.5t-22 53.5z" />
<glyph unicode="&#xb8;" horiz-adv-x="1095" d="M377 -336l26 43q64 -80 170 -80q62 0 102 39t40 101q0 67 -47 119.5t-176 119.5l53 12q121 -54 173 -116t52 -140q0 -79 -53 -130.5t-139 -51.5q-133 0 -201 84z" />
<glyph unicode="&#xb9;" horiz-adv-x="409" d="M18 1329l232 166h47v-813h-55v608q0 88 4 133l-197 -139z" />
<glyph unicode="&#xba;" horiz-adv-x="718" d="M68 1016q0 177 70.5 261.5t219.5 84.5q151 0 222 -84.5t71 -261.5t-71 -261.5t-222 -84.5q-149 0 -219.5 84.5t-70.5 261.5zM82 446v48h555v-48h-555zM123 1016q0 -153 57 -226t178 -73q123 0 180.5 73t57.5 226t-57.5 226t-180.5 73q-121 0 -178 -73t-57 -226z" />
<glyph unicode="&#xbb;" horiz-adv-x="811" d="M92 141l289 402l-289 401h72l287 -401l-287 -402h-72zM360 141l289 402l-289 401h72l287 -401l-287 -402h-72z" />
<glyph unicode="&#xbc;" d="M18 1196l232 166h47v-813h-55v608q0 88 4 133l-197 -139zM272 0l564 1352h65l-563 -1352h-66zM618 238v18l433 559h39v-530h59v-47h-59v-246h-52v246h-420zM702 285h336v434z" />
<glyph unicode="&#xbd;" horiz-adv-x="1378" d="M18 1196l232 166h47v-813h-55v608q0 88 4 133l-197 -139zM272 0l564 1352h65l-563 -1352h-66zM821 -10l2 20q220 208 284 276q150 162 163 264q2 12 2 23q0 91 -51.5 145t-137.5 54q-93 0 -149.5 -60.5t-61.5 -158.5l-47 14q9 115 78.5 183.5t181.5 68.5q104 0 170 -67 t66 -179q0 -46 -19 -95.5t-46.5 -92t-85.5 -105t-106 -109.5t-138 -132h39h362v-47z" />
<glyph unicode="&#xbe;" horiz-adv-x="1458" d="M37 729l49 23q37 -166 221 -166q90 0 147.5 47t57.5 133q0 79 -51 124.5t-146 45.5h-53v45h51q84 0 131.5 48.5t47.5 121.5q0 81 -50 126.5t-137 45.5q-77 0 -128 -38t-66 -105l-52 22q23 79 88 124.5t156 45.5q116 0 181 -60.5t65 -156.5q0 -146 -143 -194v-5 q70 -11 115.5 -64t45.5 -130q0 -103 -73.5 -164t-190.5 -61q-107 0 -175.5 51t-90.5 141zM506 0l563 1352h66l-564 -1352h-65zM852 238v18l432 559h39v-530h59v-47h-59v-246h-51v246h-420zM936 285h336v434z" />
<glyph unicode="&#xbf;" horiz-adv-x="983" d="M57 88q0 179 123 309.5t299 141.5v221h62v-277l-19 -2h-12h-4q-163 -2 -278 -115.5t-115 -277.5q0 -163 114 -277t277 -114q112 0 203 55t143 148l49 -29q-58 -105 -164 -168t-231 -63q-121 0 -224 60t-163 163t-60 225zM434 963q0 32 21.5 53.5t52.5 21.5q32 0 54 -21.5 t22 -53.5q0 -31 -22 -52.5t-54 -21.5q-31 0 -52.5 21.5t-21.5 52.5z" />
<glyph unicode="&#xc0;" d="M27 0l551 1352h69l551 -1352h-65l-179 436h-684l-178 -436h-65zM293 492h639l-279 682l-41 114h-2l-39 -110zM408 1825h63l145 -303h-61z" />
<glyph unicode="&#xc1;" d="M27 0l551 1352h69l551 -1352h-65l-179 436h-684l-178 -436h-65zM293 492h639l-279 682l-41 114h-2l-39 -110zM592 1522l145 303h64l-148 -303h-61z" />
<glyph unicode="&#xc2;" d="M27 0l551 1352h69l551 -1352h-65l-179 436h-684l-178 -436h-65zM293 492h639l-279 682l-41 114h-2l-39 -110zM350 1520l225 301h72l227 -301h-61l-201 258l-202 -258h-60z" />
<glyph unicode="&#xc3;" d="M27 0l551 1352h69l551 -1352h-65l-179 436h-684l-178 -436h-65zM279 1546q15 98 59.5 145.5t126.5 47.5q44 0 78.5 -14.5t57.5 -35t45 -41t50.5 -35t63.5 -14.5q62 0 91 34.5t44 107.5h51q-15 -99 -58.5 -146t-125.5 -47q-45 0 -80 14.5t-58 35t-45 41t-51 35t-65 14.5 q-61 0 -88.5 -34t-42.5 -108h-53zM293 492h639l-279 682l-41 114h-2l-39 -110z" />
<glyph unicode="&#xc4;" d="M27 0l551 1352h69l551 -1352h-65l-179 436h-684l-178 -436h-65zM293 492h639l-279 682l-41 114h-2l-39 -110zM367 1606q0 25 18 42t45 17q23 0 40 -17t17 -42q0 -26 -16.5 -43t-40.5 -17q-28 0 -45.5 17t-17.5 43zM748 1606q0 25 18.5 42t44.5 17q24 0 41.5 -17.5 t17.5 -41.5q0 -26 -17.5 -43t-41.5 -17q-27 0 -45 17t-18 43z" />
<glyph unicode="&#xc5;" d="M27 0l536 1315q-57 14 -90 56.5t-33 103.5q0 73 47.5 118t124.5 45t124.5 -45t47.5 -118q0 -61 -32.5 -103.5t-89.5 -56.5l536 -1315h-65l-179 436h-684l-178 -436h-65zM293 492h639l-279 682l-41 114h-2l-39 -110zM492 1475q0 -54 32.5 -87.5t87.5 -33.5q54 0 87.5 33.5 t33.5 87.5t-33.5 87t-87.5 33q-55 0 -87.5 -33t-32.5 -87z" />
<glyph unicode="&#xc6;" horiz-adv-x="1835" d="M-14 0l843 1352h906v-56h-774v-581h614v-58h-614v-602h806v-55h-868v502h-528l-310 -502h-75zM406 557h493v739h-39z" />
<glyph unicode="&#xc7;" horiz-adv-x="1490" d="M96 676q0 144 56 275t151 225t226 150t274 56q162 0 304.5 -68.5t240.5 -189.5l-48 -41q-91 111 -220 174.5t-277 63.5q-175 0 -323 -86.5t-234 -235t-86 -323.5t86 -323.5t234 -235t323 -86.5q148 0 277 63t220 174l50 -39q-98 -120 -238 -188.5t-299 -71.5 q83 -48 119.5 -101.5t36.5 -119.5q0 -79 -53 -130.5t-140 -51.5q-133 0 -201 84l27 43q64 -80 170 -80q62 0 101.5 38.5t39.5 100.5q0 63 -40 112.5t-148 108.5q-131 14 -247.5 75t-200 154t-132.5 216.5t-49 257.5z" />
<glyph unicode="&#xc8;" horiz-adv-x="1210" d="M172 0v1352h907v-56h-846v-614h760v-57h-760v-570h879v-55h-940zM489 1825h64l145 -303h-61z" />
<glyph unicode="&#xc9;" horiz-adv-x="1210" d="M172 0v1352h907v-56h-846v-614h760v-57h-760v-570h879v-55h-940zM618 1522l146 303h63l-147 -303h-62z" />
<glyph unicode="&#xca;" horiz-adv-x="1210" d="M172 0v1352h907v-56h-846v-614h760v-57h-760v-570h879v-55h-940zM362 1520l226 301h71l228 -301h-62l-200 258l-203 -258h-60z" />
<glyph unicode="&#xcb;" horiz-adv-x="1210" d="M172 0v1352h907v-56h-846v-614h760v-57h-760v-570h879v-55h-940zM379 1606q0 25 18 42t45 17q24 0 41 -17.5t17 -41.5q0 -26 -17 -43t-41 -17q-28 0 -45.5 17t-17.5 43zM760 1606q0 25 18.5 42t44.5 17q24 0 42 -17.5t18 -41.5q0 -26 -18 -43t-42 -17q-27 0 -45 17 t-18 43z" />
<glyph unicode="&#xcc;" horiz-adv-x="501" d="M47 1825h64l145 -303h-61zM219 0v1352h64v-1352h-64z" />
<glyph unicode="&#xcd;" horiz-adv-x="501" d="M219 0v1352h64v-1352h-64zM236 1522l145 303h63l-147 -303h-61z" />
<glyph unicode="&#xce;" horiz-adv-x="501" d="M-10 1520l225 301h72l227 -301h-61l-201 258l-203 -258h-59zM219 0v1352h64v-1352h-64z" />
<glyph unicode="&#xcf;" horiz-adv-x="466" d="M39 1606q0 28 16.5 44.5t44.5 16.5q27 0 44.5 -17t17.5 -44q0 -26 -18 -43t-44 -17q-28 0 -44.5 17t-16.5 43zM219 0v1352h64v-1352h-64zM305 1606q0 28 17 44.5t45 16.5q26 0 42.5 -16.5t16.5 -44.5q0 -26 -16.5 -43t-42.5 -17q-28 0 -45 17t-17 43z" />
<glyph unicode="&#xd0;" horiz-adv-x="1427" d="M14 659v50h195v643h481q160 0 288 -49t211 -137.5t127 -209t44 -264.5q0 -204 -75.5 -358.5t-228.5 -244t-366 -89.5h-481v659h-195zM270 55h424q192 0 329.5 83.5t205 225.5t67.5 328q0 130 -39.5 239.5t-113.5 191t-189.5 127.5t-259.5 46h-424v-587h432v-50h-432v-604 z" />
<glyph unicode="&#xd1;" horiz-adv-x="1370" d="M172 0v1352h80l815 -1166l74 -120l-2 137v1149h59v-1352h-80l-817 1165l-72 121h-2l4 -137v-1149h-59zM362 1546q15 98 60 145.5t127 47.5q44 0 78.5 -14.5t57.5 -35t45 -41t50.5 -35t63.5 -14.5q62 0 91 34.5t44 107.5h51q-15 -99 -58.5 -146t-125.5 -47q-45 0 -80 14.5 t-58 35t-45 41t-51 35t-65 14.5q-61 0 -88.5 -34t-42.5 -108h-54z" />
<glyph unicode="&#xd2;" horiz-adv-x="1601" d="M94 676q0 144 56 275t151 225t226 150t274 56q192 0 354.5 -94.5t257 -257t94.5 -354.5q0 -144 -56 -275t-150.5 -225.5t-225.5 -150.5t-274 -56q-144 0 -275 56t-225.5 150.5t-150.5 225.5t-56 275zM156 676q0 -174 87 -322.5t235.5 -235.5t322.5 -87t322.5 87 t235.5 235.5t87 322.5q0 175 -87 323.5t-235.5 235t-322.5 86.5t-322.5 -86.5t-235.5 -235t-87 -323.5zM643 1825h64l145 -303h-61z" />
<glyph unicode="&#xd3;" horiz-adv-x="1601" d="M94 676q0 144 56 275t151 225t226 150t274 56q192 0 354.5 -94.5t257 -257t94.5 -354.5q0 -144 -56 -275t-150.5 -225.5t-225.5 -150.5t-274 -56q-144 0 -275 56t-225.5 150.5t-150.5 225.5t-56 275zM156 676q0 -174 87 -322.5t235.5 -235.5t322.5 -87t322.5 87 t235.5 235.5t87 322.5q0 175 -87 323.5t-235.5 235t-322.5 86.5t-322.5 -86.5t-235.5 -235t-87 -323.5zM778 1522l146 303h63l-147 -303h-62z" />
<glyph unicode="&#xd4;" horiz-adv-x="1601" d="M94 676q0 144 56 275t151 225t226 150t274 56q192 0 354.5 -94.5t257 -257t94.5 -354.5q0 -144 -56 -275t-150.5 -225.5t-225.5 -150.5t-274 -56q-144 0 -275 56t-225.5 150.5t-150.5 225.5t-56 275zM156 676q0 -174 87 -322.5t235.5 -235.5t322.5 -87t322.5 87 t235.5 235.5t87 322.5q0 175 -87 323.5t-235.5 235t-322.5 86.5t-322.5 -86.5t-235.5 -235t-87 -323.5zM537 1520l225 301h72l227 -301h-62l-200 258l-203 -258h-59z" />
<glyph unicode="&#xd5;" horiz-adv-x="1601" d="M94 676q0 144 56 275t151 225t226 150t274 56q192 0 354.5 -94.5t257 -257t94.5 -354.5q0 -144 -56 -275t-150.5 -225.5t-225.5 -150.5t-274 -56q-144 0 -275 56t-225.5 150.5t-150.5 225.5t-56 275zM156 676q0 -174 87 -322.5t235.5 -235.5t322.5 -87t322.5 87 t235.5 235.5t87 322.5q0 175 -87 323.5t-235.5 235t-322.5 86.5t-322.5 -86.5t-235.5 -235t-87 -323.5zM465 1546q15 98 59.5 145.5t126.5 47.5q44 0 78.5 -14.5t57.5 -35t45 -41t50.5 -35t63.5 -14.5q62 0 91 34.5t44 107.5h52q-15 -99 -59 -146t-126 -47q-45 0 -80 14.5 t-58 35t-45 41t-51 35t-65 14.5q-61 0 -88.5 -34t-42.5 -108h-53z" />
<glyph unicode="&#xd6;" horiz-adv-x="1601" d="M94 676q0 144 56 275t151 225t226 150t274 56q192 0 354.5 -94.5t257 -257t94.5 -354.5q0 -144 -56 -275t-150.5 -225.5t-225.5 -150.5t-274 -56q-144 0 -275 56t-225.5 150.5t-150.5 225.5t-56 275zM156 676q0 -174 87 -322.5t235.5 -235.5t322.5 -87t322.5 87 t235.5 235.5t87 322.5q0 175 -87 323.5t-235.5 235t-322.5 86.5t-322.5 -86.5t-235.5 -235t-87 -323.5zM553 1606q0 25 18 42t45 17q24 0 41 -17.5t17 -41.5q0 -26 -17 -43t-41 -17q-28 0 -45.5 17t-17.5 43zM934 1606q0 25 18.5 42t44.5 17q24 0 42 -17.5t18 -41.5 q0 -26 -18 -43t-42 -17q-27 0 -45 17t-18 43z" />
<glyph unicode="&#xd7;" horiz-adv-x="1228" d="M229 303l45 -45l340 340l338 -340l45 45l-338 340l338 338l-45 45l-338 -338l-340 338l-45 -45l385 -383l45 45l-45 45z" />
<glyph unicode="&#xd8;" horiz-adv-x="1499" d="M94 676q0 144 56 275t151 225t226 150t274 56q217 0 395 -120l107 147h65l-129 -178q125 -98 196.5 -243.5t71.5 -311.5q0 -144 -56 -275t-150.5 -225.5t-225.5 -150.5t-274 -56q-210 0 -387 115l-107 -150h-63l129 179q-130 98 -204.5 246t-74.5 317zM156 676 q0 -152 68 -286.5t186 -225.5l749 1046q-162 111 -358 111q-174 0 -322.5 -86.5t-235.5 -235t-87 -323.5zM451 135q158 -104 350 -104q174 0 322.5 87t235.5 235.5t87 322.5q0 150 -65.5 282t-178.5 224z" />
<glyph unicode="&#xd9;" horiz-adv-x="1355" d="M164 485v867h61v-856q0 -222 118 -341.5t335 -119.5t334.5 119.5t117.5 341.5v856h62v-867q0 -243 -134 -374t-380 -131q-244 0 -379 131t-135 374zM524 1825h64l145 -303h-61z" />
<glyph unicode="&#xda;" horiz-adv-x="1355" d="M164 485v867h61v-856q0 -222 118 -341.5t335 -119.5t334.5 119.5t117.5 341.5v856h62v-867q0 -243 -134 -374t-380 -131q-244 0 -379 131t-135 374zM657 1522l146 303h63l-147 -303h-62z" />
<glyph unicode="&#xdb;" horiz-adv-x="1355" d="M164 485v867h61v-856q0 -222 118 -341.5t335 -119.5t334.5 119.5t117.5 341.5v856h62v-867q0 -243 -134 -374t-380 -131q-244 0 -379 131t-135 374zM416 1520l225 301h72l227 -301h-61l-201 258l-203 -258h-59z" />
<glyph unicode="&#xdc;" horiz-adv-x="1355" d="M164 485v867h61v-856q0 -222 118 -341.5t335 -119.5t334.5 119.5t117.5 341.5v856h62v-867q0 -243 -134 -374t-380 -131q-244 0 -379 131t-135 374zM432 1606q0 25 18 42t46 17q23 0 40 -17t17 -42q0 -26 -16.5 -43t-40.5 -17q-28 0 -46 17t-18 43zM813 1606q0 25 19 42 t45 17q24 0 41.5 -17.5t17.5 -41.5q0 -26 -17.5 -43t-41.5 -17q-27 0 -45.5 17t-18.5 43z" />
<glyph unicode="&#xdd;" horiz-adv-x="1112" d="M47 1352h74l434 -762l172 299l264 463h72l-477 -828v-524h-62v524zM537 1522l145 303h63l-147 -303h-61z" />
<glyph unicode="&#xde;" horiz-adv-x="1179" d="M203 0v1352h61v-269h348q239 0 361.5 -98.5t122.5 -290.5q0 -191 -122.5 -289t-361.5 -98h-348v-307h-61zM264 362h367q199 0 300 84t101 248q0 332 -401 332h-367v-664z" />
<glyph unicode="&#xdf;" horiz-adv-x="1157" d="M174 0v1049q0 222 108.5 339t327.5 117q185 0 286 -99t101 -263q0 -152 -88.5 -255.5t-228.5 -107.5v-2q183 -7 280 -115.5t97 -283.5q0 -177 -108.5 -288t-289.5 -111q-68 0 -124.5 22.5t-90.5 63.5l25 45q69 -78 193 -78q152 0 242.5 95.5t90.5 254.5q0 181 -105 273 t-288 92h-88v55h88q150 0 242 91.5t92 250.5q0 144 -87 224.5t-243 80.5q-373 0 -373 -430v-1020h-59z" />
<glyph unicode="&#xe0;" horiz-adv-x="1122" d="M111 260q0 119 84.5 190.5t271.5 104.5q126 27 422 59v91q0 132 -92 207t-244 75q-292 0 -375 -227l-47 35q45 123 153 186t269 63q179 0 288 -87t109 -248v-545v-168h-61v180v6q-48 -96 -173.5 -149t-258.5 -53q-160 0 -253 79t-93 201zM172 260q0 -96 79.5 -161.5 t215.5 -65.5q64 0 134 17.5t136 50t109 89.5t43 127v240q-301 -30 -395 -49q-171 -30 -246.5 -91t-75.5 -157zM381 1505h61l179 -309h-60z" />
<glyph unicode="&#xe1;" horiz-adv-x="1122" d="M111 260q0 119 84.5 190.5t271.5 104.5q126 27 422 59v91q0 132 -92 207t-244 75q-292 0 -375 -227l-47 35q45 123 153 186t269 63q179 0 288 -87t109 -248v-545v-168h-61v180v6q-48 -96 -173.5 -149t-258.5 -53q-160 0 -253 79t-93 201zM172 260q0 -96 79.5 -161.5 t215.5 -65.5q64 0 134 17.5t136 50t109 89.5t43 127v240q-301 -30 -395 -49q-171 -30 -246.5 -91t-75.5 -157zM547 1196l178 309h61l-180 -309h-59z" />
<glyph unicode="&#xe2;" horiz-adv-x="1122" d="M111 260q0 119 84.5 190.5t271.5 104.5q126 27 422 59v91q0 132 -92 207t-244 75q-292 0 -375 -227l-47 35q45 123 153 186t269 63q179 0 288 -87t109 -248v-545v-168h-61v180v6q-48 -96 -173.5 -149t-258.5 -53q-160 0 -253 79t-93 201zM172 260q0 -96 79.5 -161.5 t215.5 -65.5q64 0 134 17.5t136 50t109 89.5t43 127v240q-301 -30 -395 -49q-171 -30 -246.5 -91t-75.5 -157zM317 1194l224 301h69l224 -301h-66l-193 256l-194 -256h-64z" />
<glyph unicode="&#xe3;" horiz-adv-x="1122" d="M111 260q0 119 84.5 190.5t271.5 104.5q126 27 422 59v91q0 132 -92 207t-244 75q-292 0 -375 -227l-47 35q45 123 153 186t269 63q179 0 288 -87t109 -248v-545v-168h-61v180v6q-48 -96 -173.5 -149t-258.5 -53q-160 0 -253 79t-93 201zM172 260q0 -96 79.5 -161.5 t215.5 -65.5q64 0 134 17.5t136 50t109 89.5t43 127v240q-301 -30 -395 -49q-171 -30 -246.5 -91t-75.5 -157zM248 1221q15 98 59.5 145t126.5 47q44 0 78.5 -14.5t57.5 -35t45 -40.5t50.5 -34.5t63.5 -14.5q62 0 91 34t44 107h51q-15 -99 -58.5 -145.5t-125.5 -46.5 q-45 0 -80 14.5t-58 35t-45 40.5t-51 34.5t-65 14.5q-61 0 -88.5 -33.5t-42.5 -107.5h-53z" />
<glyph unicode="&#xe4;" horiz-adv-x="1122" d="M111 260q0 119 84.5 190.5t271.5 104.5q126 27 422 59v91q0 132 -92 207t-244 75q-292 0 -375 -227l-47 35q45 123 153 186t269 63q179 0 288 -87t109 -248v-545v-168h-61v180v6q-48 -96 -173.5 -149t-258.5 -53q-160 0 -253 79t-93 201zM172 260q0 -96 79.5 -161.5 t215.5 -65.5q64 0 134 17.5t136 50t109 89.5t43 127v240q-301 -30 -395 -49q-171 -30 -246.5 -91t-75.5 -157zM336 1280q0 25 18 42t45 17q23 0 40.5 -17.5t17.5 -41.5q0 -26 -17 -42.5t-41 -16.5q-28 0 -45.5 16.5t-17.5 42.5zM717 1280q0 25 18.5 42t44.5 17 q24 0 42 -17.5t18 -41.5q0 -25 -18 -42t-42 -17q-27 0 -45 16.5t-18 42.5z" />
<glyph unicode="&#xe5;" horiz-adv-x="1122" d="M111 260q0 119 84.5 190.5t271.5 104.5q126 27 422 59v91q0 132 -92 207t-244 75q-292 0 -375 -227l-47 35q45 123 153 186t269 63q179 0 288 -87t109 -248v-545v-168h-61v180v6q-48 -96 -173.5 -149t-258.5 -53q-160 0 -253 79t-93 201zM172 260q0 -96 79.5 -161.5 t215.5 -65.5q64 0 134 17.5t136 50t109 89.5t43 127v240q-301 -30 -395 -49q-171 -30 -246.5 -91t-75.5 -157zM350 1360q0 74 53.5 127t128.5 53t129 -53t54 -127q0 -75 -54 -128.5t-129 -53.5t-128.5 53.5t-53.5 128.5zM403 1360q0 -54 37.5 -92.5t91.5 -38.5t93.5 38.5 t38.5 92.5q0 52 -39 89.5t-93 37.5t-91.5 -37t-37.5 -90z" />
<glyph unicode="&#xe6;" horiz-adv-x="1773" d="M94 229q0 124 92.5 200.5t286.5 96.5l350 37v137q0 138 -80.5 214.5t-230.5 76.5q-261 0 -350 -231l-47 35q93 249 399 249q151 0 243 -69t115 -199q50 129 148 198.5t233 69.5q206 0 313 -127.5t107 -369.5q0 -27 -2 -37h-792q0 -221 102.5 -349t275.5 -128 q262 0 347 213l51 -27q-105 -239 -398 -239q-152 0 -257 82.5t-146 238.5q-13 -84 -55.5 -148t-105 -100.5t-131.5 -54.5t-144 -18q-148 0 -236 65t-88 184zM158 229q0 -96 74.5 -146t199.5 -50q51 0 103 11t104.5 37.5t92.5 66t65.5 102t25.5 139.5v125l-323 -35 q-342 -34 -342 -250zM881 565h737q-12 426 -365 426q-161 0 -260.5 -113.5t-111.5 -312.5z" />
<glyph unicode="&#xe7;" horiz-adv-x="1142" d="M90 512q0 144 71 266.5t193.5 194t266.5 71.5q136 0 254 -65.5t190 -175.5l-47 -31q-64 99 -168.5 157t-226.5 58q-197 0 -334 -139t-137 -336t137 -335t334 -138q122 0 224.5 55.5t166.5 153.5l51 -31q-67 -99 -169 -161t-224 -74q151 -86 151 -220q0 -79 -53 -130.5 t-139 -51.5q-133 0 -201 84l27 43q64 -80 170 -80q62 0 101.5 38.5t39.5 101.5q0 61 -37.5 109t-138.5 104q-210 11 -356 165t-146 367z" />
<glyph unicode="&#xe8;" horiz-adv-x="1191" d="M119 512q0 241 139 386.5t360 145.5q209 0 342.5 -145t133.5 -381q0 -29 -2 -37h-914q10 -207 136 -327.5t317 -120.5q125 0 233.5 58t151.5 155l51 -27q-55 -111 -174 -175t-262 -64q-226 0 -369 143t-143 389zM178 535h860q-7 209 -122.5 332.5t-297.5 123.5 q-188 0 -310.5 -124.5t-129.5 -331.5zM418 1503h61l178 -309h-59z" />
<glyph unicode="&#xe9;" horiz-adv-x="1191" d="M119 512q0 241 139 386.5t360 145.5q209 0 342.5 -145t133.5 -381q0 -29 -2 -37h-914q10 -207 136 -327.5t317 -120.5q125 0 233.5 58t151.5 155l51 -27q-55 -111 -174 -175t-262 -64q-226 0 -369 143t-143 389zM178 535h860q-7 209 -122.5 332.5t-297.5 123.5 q-188 0 -310.5 -124.5t-129.5 -331.5zM584 1194l178 309h61l-180 -309h-59z" />
<glyph unicode="&#xea;" horiz-adv-x="1191" d="M119 512q0 241 139 386.5t360 145.5q209 0 342.5 -145t133.5 -381q0 -29 -2 -37h-914q10 -207 136 -327.5t317 -120.5q125 0 233.5 58t151.5 155l51 -27q-55 -111 -174 -175t-262 -64q-226 0 -369 143t-143 389zM178 535h860q-7 209 -122.5 332.5t-297.5 123.5 q-188 0 -310.5 -124.5t-129.5 -331.5zM352 1192l223 301h70l223 -301h-65l-193 256l-194 -256h-64z" />
<glyph unicode="&#xeb;" horiz-adv-x="1191" d="M119 512q0 241 139 386.5t360 145.5q209 0 342.5 -145t133.5 -381q0 -29 -2 -37h-914q10 -207 136 -327.5t317 -120.5q125 0 233.5 58t151.5 155l51 -27q-55 -111 -174 -175t-262 -64q-226 0 -369 143t-143 389zM178 535h860q-7 209 -122.5 332.5t-297.5 123.5 q-188 0 -310.5 -124.5t-129.5 -331.5zM373 1278q0 25 18 42t45 17q24 0 41 -17.5t17 -41.5q0 -26 -17 -42.5t-41 -16.5q-28 0 -45.5 16.5t-17.5 42.5zM754 1278q0 25 18.5 42t44.5 17q24 0 42 -17.5t18 -41.5q0 -25 -18 -42t-42 -17q-27 0 -45 16.5t-18 42.5z" />
<glyph unicode="&#xec;" horiz-adv-x="407" d="M2 1503h61l179 -309h-60zM174 0v1024h62v-1024h-62z" />
<glyph unicode="&#xed;" horiz-adv-x="407" d="M172 1194l178 309h62l-181 -309h-59zM174 0v1024h62v-1024h-62z" />
<glyph unicode="&#xee;" horiz-adv-x="407" d="M-61 1192l223 301h69l224 -301h-66l-192 256l-195 -256h-63zM174 0v1024h62v-1024h-62z" />
<glyph unicode="&#xef;" horiz-adv-x="407" d="M27 1278q0 28 16.5 44.5t44.5 16.5t45 -16.5t17 -44.5q0 -26 -17 -42.5t-45 -16.5t-44.5 16.5t-16.5 42.5zM174 0v1024h62v-1024h-62zM258 1278q0 28 16.5 44.5t44.5 16.5t45 -16.5t17 -44.5q0 -26 -17 -42.5t-45 -16.5t-44.5 16.5t-16.5 42.5z" />
<glyph unicode="&#xf0;" horiz-adv-x="1191" d="M104 485q0 232 129.5 370t341.5 138q158 0 267 -69t155 -193q-28 306 -188 512l-360 -80l-11 43l340 72q-124 139 -309 217h100q162 -79 271 -205l235 56l12 -43l-221 -48q191 -251 191 -673q0 -294 -122 -448t-347 -154q-223 0 -353.5 137t-130.5 368zM168 485 q0 -208 113 -330t309 -122q189 0 297 129t114 356q0 85 -27.5 160.5t-79 134t-133 93t-181.5 34.5q-187 0 -299.5 -124t-112.5 -331z" />
<glyph unicode="&#xf1;" horiz-adv-x="1181" d="M166 0v1024h55l2 -246q43 122 153 194t257 72q177 0 281 -98t104 -276v-670h-62v653q0 163 -88.5 250.5t-242.5 87.5q-167 0 -282.5 -112t-115.5 -279v-600h-61zM266 1219q15 98 60 145t127 47q44 0 78.5 -14.5t57.5 -35t45 -40.5t50.5 -34.5t63.5 -14.5q62 0 91 34 t44 107h51q-15 -99 -58.5 -145.5t-125.5 -46.5q-45 0 -80 14.5t-58 35t-45 40.5t-51 34.5t-65 14.5q-61 0 -89 -34t-43 -107h-53z" />
<glyph unicode="&#xf2;" horiz-adv-x="1251" d="M94 512q0 144 71 266.5t194 194t268 71.5q144 0 266.5 -71.5t194 -194t71.5 -266.5q0 -145 -71.5 -267.5t-194 -193.5t-266.5 -71q-145 0 -268 71t-194 193.5t-71 267.5zM156 512q0 -127 63 -235t171.5 -171t236.5 -63q127 0 235.5 63t172 171t63.5 235t-63.5 236.5 t-172 174t-235.5 64.5q-194 0 -332.5 -140.5t-138.5 -334.5zM424 1503h61l179 -309h-60z" />
<glyph unicode="&#xf3;" horiz-adv-x="1251" d="M94 512q0 144 71 266.5t194 194t268 71.5q144 0 266.5 -71.5t194 -194t71.5 -266.5q0 -145 -71.5 -267.5t-194 -193.5t-266.5 -71q-145 0 -268 71t-194 193.5t-71 267.5zM156 512q0 -127 63 -235t171.5 -171t236.5 -63q127 0 235.5 63t172 171t63.5 235t-63.5 236.5 t-172 174t-235.5 64.5q-194 0 -332.5 -140.5t-138.5 -334.5zM590 1194l178 309h61l-180 -309h-59z" />
<glyph unicode="&#xf4;" horiz-adv-x="1251" d="M94 512q0 144 71 266.5t194 194t268 71.5q144 0 266.5 -71.5t194 -194t71.5 -266.5q0 -145 -71.5 -267.5t-194 -193.5t-266.5 -71q-145 0 -268 71t-194 193.5t-71 267.5zM156 512q0 -127 63 -235t171.5 -171t236.5 -63q127 0 235.5 63t172 171t63.5 235t-63.5 236.5 t-172 174t-235.5 64.5q-194 0 -332.5 -140.5t-138.5 -334.5zM360 1192l224 301h69l224 -301h-66l-193 256l-194 -256h-64z" />
<glyph unicode="&#xf5;" horiz-adv-x="1251" d="M94 512q0 144 71 266.5t194 194t268 71.5q144 0 266.5 -71.5t194 -194t71.5 -266.5q0 -145 -71.5 -267.5t-194 -193.5t-266.5 -71q-145 0 -268 71t-194 193.5t-71 267.5zM156 512q0 -127 63 -235t171.5 -171t236.5 -63q127 0 235.5 63t172 171t63.5 235t-63.5 236.5 t-172 174t-235.5 64.5q-194 0 -332.5 -140.5t-138.5 -334.5zM293 1219q15 98 59.5 145t126.5 47q44 0 78.5 -14.5t57.5 -35t45 -40.5t50.5 -34.5t63.5 -14.5q62 0 91 34t44 107h52q-15 -98 -59 -145t-126 -47q-45 0 -80 14.5t-58 35t-45 40.5t-51 34.5t-65 14.5 q-61 0 -88.5 -33.5t-42.5 -107.5h-53z" />
<glyph unicode="&#xf6;" horiz-adv-x="1251" d="M94 512q0 144 71 266.5t194 194t268 71.5q144 0 266.5 -71.5t194 -194t71.5 -266.5q0 -145 -71.5 -267.5t-194 -193.5t-266.5 -71q-145 0 -268 71t-194 193.5t-71 267.5zM156 512q0 -127 63 -235t171.5 -171t236.5 -63q127 0 235.5 63t172 171t63.5 235t-63.5 236.5 t-172 174t-235.5 64.5q-194 0 -332.5 -140.5t-138.5 -334.5zM381 1278q0 25 18 42t45 17q24 0 41 -17.5t17 -41.5q0 -26 -17 -42.5t-41 -16.5q-28 0 -45.5 16.5t-17.5 42.5zM762 1278q0 25 18.5 42t44.5 17q24 0 42 -17.5t18 -41.5q0 -25 -18 -42t-42 -17q-27 0 -45 16.5 t-18 42.5z" />
<glyph unicode="&#xf7;" horiz-adv-x="1228" d="M145 618v58h938v-58h-938zM539 266q0 31 21.5 52.5t53.5 21.5q31 0 52.5 -21.5t21.5 -52.5q0 -32 -21.5 -54t-52.5 -22q-32 0 -53.5 22t-21.5 54zM539 1034q0 31 21.5 52.5t53.5 21.5q31 0 52.5 -21.5t21.5 -52.5q0 -32 -21.5 -54t-52.5 -22q-32 0 -53.5 22t-21.5 54z " />
<glyph unicode="&#xf8;" horiz-adv-x="1175" d="M104 512q0 248 129.5 390t354.5 142q187 0 311 -102l111 139h63l-137 -174q133 -142 133 -395q0 -249 -128.5 -390.5t-352.5 -141.5q-184 0 -303 96l-111 -142h-63l135 175q-142 145 -142 403zM166 512q0 -228 117 -354h2l57 73l522 664q-110 96 -276 96 q-197 0 -309.5 -127.5t-112.5 -351.5zM319 121q108 -88 269 -88q197 0 308.5 127.5t111.5 351.5q0 217 -109 348h-2l-45 -59z" />
<glyph unicode="&#xf9;" horiz-adv-x="1146" d="M154 344v680h61v-668q0 -158 81 -240.5t230 -82.5q96 0 175 35.5t127 92t74 123t26 132.5v608h61v-1024h-59v242q-43 -121 -153 -191.5t-261 -70.5q-170 0 -266 93.5t-96 270.5zM373 1503h61l178 -309h-59z" />
<glyph unicode="&#xfa;" horiz-adv-x="1146" d="M154 344v680h61v-668q0 -158 81 -240.5t230 -82.5q96 0 175 35.5t127 92t74 123t26 132.5v608h61v-1024h-59v242q-43 -121 -153 -191.5t-261 -70.5q-170 0 -266 93.5t-96 270.5zM539 1194l178 309h61l-180 -309h-59z" />
<glyph unicode="&#xfb;" horiz-adv-x="1146" d="M154 344v680h61v-668q0 -158 81 -240.5t230 -82.5q96 0 175 35.5t127 92t74 123t26 132.5v608h61v-1024h-59v242q-43 -121 -153 -191.5t-261 -70.5q-170 0 -266 93.5t-96 270.5zM307 1192l223 301h70l223 -301h-65l-193 256l-194 -256h-64z" />
<glyph unicode="&#xfc;" horiz-adv-x="1146" d="M154 344v680h61v-668q0 -158 81 -240.5t230 -82.5q96 0 175 35.5t127 92t74 123t26 132.5v608h61v-1024h-59v242q-43 -121 -153 -191.5t-261 -70.5q-170 0 -266 93.5t-96 270.5zM328 1278q0 25 18 42t45 17q23 0 40.5 -17.5t17.5 -41.5q0 -26 -17 -42.5t-41 -16.5 q-28 0 -45.5 16.5t-17.5 42.5zM709 1278q0 25 18.5 42t44.5 17q24 0 41.5 -17.5t17.5 -41.5q0 -26 -17.5 -42.5t-41.5 -16.5q-27 0 -45 16.5t-18 42.5z" />
<glyph unicode="&#xfd;" horiz-adv-x="1005" d="M0 -371l27 52q47 -68 149 -68q78 0 132.5 44t99.5 157l75 184l-110 260l-324 766h70l352 -850l43 -106l43 112l342 844h68l-504 -1223q-56 -135 -121.5 -188t-167.5 -53q-123 0 -174 69zM477 1194l178 309h62l-180 -309h-60z" />
<glyph unicode="&#xfe;" horiz-adv-x="1208" d="M174 -430v1925h62v-723q44 129 148.5 200.5t250.5 71.5q220 0 344.5 -141t124.5 -391t-124.5 -391t-344.5 -141q-147 0 -250.5 72t-148.5 202v-684h-62zM236 504q0 -218 106.5 -344.5t284.5 -126.5q196 0 305.5 127t109.5 352t-109.5 352t-305.5 127q-179 0 -285 -127 t-106 -344v-16z" />
<glyph unicode="&#xff;" horiz-adv-x="1005" d="M0 -371l27 52q47 -68 149 -68q78 0 132.5 44t99.5 157l75 184l-110 260l-324 766h70l352 -850l43 -106l43 112l342 844h68l-504 -1223q-56 -135 -121.5 -188t-167.5 -53q-123 0 -174 69zM266 1278q0 25 18 42t46 17q23 0 40 -17t17 -42q0 -26 -16.5 -42.5t-40.5 -16.5 q-28 0 -46 16.5t-18 42.5zM647 1278q0 25 19 42t45 17q24 0 41.5 -17.5t17.5 -41.5q0 -26 -17.5 -42.5t-41.5 -16.5q-27 0 -45.5 16.5t-18.5 42.5z" />
<glyph unicode="&#x152;" horiz-adv-x="2154" d="M115 676q0 320 159 508t428 188q389 0 504 -342v322h848v-56h-790v-579h637v-55h-637v-607h825v-55h-883v322q-115 -342 -506 -342q-267 0 -426 188t-159 508zM178 676q0 -295 142 -468t382 -173q256 0 380 159.5t124 481.5t-124 481.5t-380 159.5q-240 0 -382 -173 t-142 -468z" />
<glyph unicode="&#x153;" horiz-adv-x="2011" d="M104 512q0 249 130 390.5t356 141.5q172 0 289 -86t161 -243q43 158 155 243.5t280 85.5q206 0 322 -141.5t116 -384.5q0 -8 -1 -21t-1 -16h-840q8 -211 116.5 -329.5t297.5 -118.5q126 0 223 56.5t143 156.5l52 -27q-56 -113 -164.5 -176t-253.5 -63q-171 0 -286 86 t-159 245q-44 -159 -160.5 -245t-289.5 -86q-226 0 -356 141.5t-130 390.5zM168 512q0 -224 112.5 -351.5t309.5 -127.5q195 0 307.5 127.5t112.5 351.5t-112.5 351.5t-307.5 127.5q-197 0 -309.5 -127.5t-112.5 -351.5zM1071 537h787q-8 215 -106.5 334.5t-276.5 119.5 q-186 0 -292 -120t-112 -334z" />
<glyph unicode="&#x178;" horiz-adv-x="1112" d="M47 1352h74l434 -762l172 299l264 463h72l-477 -828v-524h-62v524zM311 1606q0 25 18 42t46 17q23 0 40 -17t17 -42q0 -26 -16.5 -43t-40.5 -17q-28 0 -46 17t-18 43zM692 1606q0 25 19 42t45 17q24 0 41.5 -17.5t17.5 -41.5q0 -26 -17.5 -43t-41.5 -17q-27 0 -45.5 17 t-18.5 43z" />
<glyph unicode="&#x2c6;" horiz-adv-x="1095" d="M283 1192l223 301h69l224 -301h-66l-192 256l-195 -256h-63z" />
<glyph unicode="&#x2dc;" horiz-adv-x="1095" d="M176 1219q15 98 59.5 145t126.5 47q44 0 78.5 -14.5t57.5 -35t45 -40.5t50.5 -34.5t63.5 -14.5q62 0 91.5 34t44.5 107h51q-15 -98 -59 -145t-126 -47q-45 0 -80 14.5t-58 35t-45 40.5t-51 34.5t-65 14.5q-61 0 -88.5 -33.5t-42.5 -107.5h-53z" />
<glyph unicode="&#x2000;" horiz-adv-x="912" />
<glyph unicode="&#x2001;" horiz-adv-x="1825" />
<glyph unicode="&#x2002;" horiz-adv-x="912" />
<glyph unicode="&#x2003;" horiz-adv-x="1825" />
<glyph unicode="&#x2004;" horiz-adv-x="608" />
<glyph unicode="&#x2005;" horiz-adv-x="456" />
<glyph unicode="&#x2006;" horiz-adv-x="304" />
<glyph unicode="&#x2007;" horiz-adv-x="304" />
<glyph unicode="&#x2008;" horiz-adv-x="228" />
<glyph unicode="&#x2009;" horiz-adv-x="365" />
<glyph unicode="&#x200a;" horiz-adv-x="101" />
<glyph unicode="&#x2010;" horiz-adv-x="886" d="M145 518v62h596v-62h-596z" />
<glyph unicode="&#x2011;" horiz-adv-x="886" d="M145 518v62h596v-62h-596z" />
<glyph unicode="&#x2012;" horiz-adv-x="886" d="M145 518v62h596v-62h-596z" />
<glyph unicode="&#x2013;" horiz-adv-x="1263" d="M141 520v60h981v-60h-981z" />
<glyph unicode="&#x2014;" horiz-adv-x="1947" d="M141 520v60h1665v-60h-1665z" />
<glyph unicode="&#x2018;" horiz-adv-x="382" d="M117 1130q-10 107 39 179.5t135 95.5l18 -47q-114 -39 -133 -164q4 2 8 2q28 0 47 -19.5t19 -48.5q0 -28 -19 -46.5t-47 -18.5q-27 0 -45.5 18.5t-21.5 48.5z" />
<glyph unicode="&#x2019;" horiz-adv-x="380" d="M82 1122q117 40 133 162h-8q-28 0 -47 19.5t-19 48.5q0 28 19 46.5t47 18.5q27 0 45.5 -18.5t21.5 -48.5q10 -107 -39 -179.5t-135 -95.5z" />
<glyph unicode="&#x201a;" horiz-adv-x="389" d="M74 -176q115 41 131 162h-6q-28 0 -47 19t-19 48q0 28 19 47t47 19q27 0 45.5 -19t21.5 -49q10 -107 -38.5 -179t-135.5 -95z" />
<glyph unicode="&#x201c;" horiz-adv-x="622" d="M117 1130q-10 107 39 179.5t135 95.5l18 -47q-114 -39 -133 -164q4 2 8 2q28 0 47 -19.5t19 -48.5q0 -28 -19 -46.5t-47 -18.5q-27 0 -45.5 18.5t-21.5 48.5zM358 1130q-10 107 39 179.5t135 95.5l19 -47q-117 -40 -133 -164q2 2 8 2q28 0 47 -19.5t19 -48.5 q0 -28 -19 -46.5t-47 -18.5t-46.5 18.5t-21.5 48.5z" />
<glyph unicode="&#x201d;" horiz-adv-x="620" d="M82 1122q117 40 133 162h-8q-28 0 -47 19.5t-19 48.5q0 28 19 46.5t47 18.5q27 0 45.5 -18.5t21.5 -48.5q10 -107 -39 -179.5t-135 -95.5zM324 1122q114 39 133 162h-8q-28 0 -47 19.5t-19 48.5q0 28 19 46.5t47 18.5q27 0 45.5 -18.5t21.5 -48.5q10 -107 -39 -179.5 t-135 -95.5z" />
<glyph unicode="&#x201e;" horiz-adv-x="630" d="M74 -176q115 41 131 162h-6q-28 0 -47 19t-19 48q0 28 19 47t47 19q27 0 45.5 -19t21.5 -49q10 -107 -38.5 -179t-135.5 -95zM313 -176q117 40 133 162h-8q-28 0 -46.5 19t-18.5 48q0 28 18.5 47t46.5 19q27 0 46 -19t22 -49q10 -107 -38.5 -179t-135.5 -95z" />
<glyph unicode="&#x2022;" horiz-adv-x="872" d="M283 694q0 63 45.5 108.5t109.5 45.5q63 0 108.5 -45.5t45.5 -108.5q0 -64 -45.5 -109.5t-108.5 -45.5q-64 0 -109.5 45.5t-45.5 109.5z" />
<glyph unicode="&#x2026;" horiz-adv-x="1226" d="M127 53q0 31 22 52.5t54 21.5q31 0 52 -21.5t21 -52.5q0 -32 -21 -54t-52 -22q-32 0 -54 22t-22 54zM539 53q0 31 21.5 52.5t53.5 21.5q31 0 52.5 -21.5t21.5 -52.5q0 -32 -21.5 -54t-52.5 -22q-32 0 -53.5 22t-21.5 54zM950 53q0 31 22 52.5t54 21.5q31 0 52.5 -21.5 t21.5 -52.5q0 -32 -21.5 -54t-52.5 -22q-32 0 -54 22t-22 54z" />
<glyph unicode="&#x202f;" horiz-adv-x="365" />
<glyph unicode="&#x2039;" horiz-adv-x="550" d="M92 543l287 401h72l-289 -401l289 -402h-72z" />
<glyph unicode="&#x203a;" horiz-adv-x="550" d="M100 141l289 402l-289 401h72l287 -401l-287 -402h-72z" />
<glyph unicode="&#x205f;" horiz-adv-x="456" />
<glyph unicode="&#x20ac;" horiz-adv-x="1499" d="M-4 494l33 53h172q-13 67 -13 129q0 50 11 125h-203l33 53h182q61 232 252 382t436 150q163 0 307 -70t242 -192l-47 -37q-91 111 -222 174.5t-280 63.5q-220 0 -393 -132.5t-232 -338.5h783l-25 -53h-770q-12 -61 -12 -125q0 -68 12 -129h713l-25 -53h-674 q59 -205 231.5 -336t391.5 -131q149 0 280 64t224 175l45 -39q-98 -122 -242 -192t-307 -70q-244 0 -434.5 149t-251.5 380h-217z" />
<glyph unicode="&#x2122;" horiz-adv-x="1574" d="M70 1305v47h555v-47h-248v-629h-58v629h-249zM750 676v676h65l246 -568l18 -51h2l17 51l248 568h65v-676h-57v502l8 92h-2l-17 -49l-239 -545h-49l-238 545l-16 49h-2l6 -92v-502h-55z" />
<glyph unicode="&#x25fc;" horiz-adv-x="1024" d="M0 0v1024h1024v-1024h-1024z" />
</font>
</defs>
</svg>
