<?xml version="1.0" standalone="no"?>
<!DOCTYPE svg PUBLIC "-//W3C//DTD SVG 1.1//EN" "http://www.w3.org/Graphics/SVG/1.1/DTD/svg11.dtd" >
<svg xmlns="http://www.w3.org/2000/svg" xmlns:xlink="http://www.w3.org/1999/xlink" version="1.1">
<metadata></metadata>
<defs>
<font id="human_sansbold" horiz-adv-x="1216" >
<font-face units-per-em="2048" ascent="1556" descent="-492" />
<missing-glyph horiz-adv-x="522" />
<glyph unicode="&#xfb01;" horiz-adv-x="1468" d="M41 774v230h172v126q0 179 109.5 270t291.5 91q137 0 211 -49v-232q-80 31 -139 31q-82 0 -127 -37t-45 -104v-96h315v-230h-299v-774h-317v774h-172zM993 1343q0 75 54.5 130t130.5 55q75 0 129.5 -55t54.5 -130t-54.5 -129.5t-129.5 -54.5q-76 0 -130.5 54.5 t-54.5 129.5zM1020 0v1024h317v-1024h-317z" />
<glyph unicode="&#xfb02;" horiz-adv-x="1435" d="M41 774v230h172v126q0 179 109.5 270t291.5 91q137 0 211 -49v-232q-80 31 -139 31q-82 0 -127 -37t-45 -104v-96h315v-230h-299v-774h-317v774h-172zM1004 0v1464h317v-1464h-317z" />
<glyph horiz-adv-x="0" />
<glyph horiz-adv-x="682" />
<glyph unicode=" "  horiz-adv-x="522" />
<glyph unicode="&#x09;" horiz-adv-x="522" />
<glyph unicode="&#xa0;" horiz-adv-x="522" />
<glyph unicode="!" horiz-adv-x="587" d="M113 164q0 75 53 128.5t129 53.5q75 0 128.5 -53.5t53.5 -128.5q0 -76 -53.5 -130t-128.5 -54q-76 0 -129 53.5t-53 130.5zM127 1352h332l-33 -893h-266z" />
<glyph unicode="&#x22;" horiz-adv-x="880" d="M125 836v557h274l-59 -557h-215zM520 836v557h275l-60 -557h-215z" />
<glyph unicode="#" horiz-adv-x="1374" d="M41 338v194h252l47 293h-211v195h244l53 332h221l-53 -332h278l54 332h221l-55 -332h239v-195h-270l-47 -293h229v-194h-262l-55 -338h-219l55 338h-279l-55 -338h-221l55 338h-221zM514 532h279l47 293h-279z" />
<glyph unicode="$" horiz-adv-x="1220" d="M92 336q0 63 8 110h256q-4 -31 -4 -73q0 -51 48.5 -100.5t127.5 -67.5v358q-224 58 -323 153.5t-99 248.5q0 165 114 277.5t308 135.5v127h174v-129q183 -23 289.5 -144.5t106.5 -311.5h-264q0 171 -132 208v-348q226 -55 330.5 -153.5t104.5 -249.5q0 -180 -117 -284.5 t-318 -125.5v-125h-174v123q-193 18 -314.5 126t-121.5 245zM395 977q0 -55 31 -89t102 -61v306q-133 -31 -133 -156zM702 207q76 15 116 54.5t40 100.5q0 50 -37 86.5t-119 65.5v-307z" />
<glyph unicode="%" horiz-adv-x="1898" d="M70 991q0 158 112.5 270.5t272.5 112.5q158 0 270.5 -112.5t112.5 -270.5q0 -160 -112.5 -272.5t-270.5 -112.5q-160 0 -272.5 112.5t-112.5 272.5zM287 991q0 -70 49.5 -120t118.5 -50t119.5 50t50.5 120q0 69 -50.5 118.5t-119.5 49.5t-118.5 -49.5t-49.5 -118.5z M365 0l927 1354h248l-928 -1354h-247zM1063 362q0 160 112.5 273t272.5 113q158 0 270.5 -113t112.5 -273q0 -158 -112.5 -271.5t-270.5 -113.5q-159 0 -272 113t-113 272zM1278 362q0 -69 50 -118t120 -49q69 0 118.5 49t49.5 118q0 70 -49.5 120t-118.5 50q-70 0 -120 -50 t-50 -120z" />
<glyph unicode="&#x26;" horiz-adv-x="1419" d="M92 469q0 125 60 234t161 176q-43 89 -43 225q0 138 100.5 234t252.5 96q112 0 198.5 -50.5t130 -130.5t43.5 -172h-250q0 43 -29.5 72t-72.5 29q-41 0 -69.5 -29t-28.5 -72q0 -86 53 -166q99 -147 207 -290v202h440v-256h-172v-102q0 -81 -24 -152l38 -49h230v-268h-334 v4l-8 -4l-78 94q-136 -114 -313 -114q-133 0 -246.5 65.5t-179.5 178t-66 245.5zM360 469q0 -89 68 -155t156 -66q79 0 143 57q-155 199 -266 352q-101 -66 -101 -188z" />
<glyph unicode="'" horiz-adv-x="485" d="M125 836v557h274l-59 -557h-215z" />
<glyph unicode="(" horiz-adv-x="755" d="M125 623q0 285 113 538t315 438l166 -188q-161 -151 -251.5 -355t-90.5 -433q0 -228 90 -433.5t250 -355.5l-168 -188q-199 187 -311.5 440.5t-112.5 536.5z" />
<glyph unicode=")" horiz-adv-x="755" d="M37 1411l166 188q202 -185 315 -438t113 -538q0 -283 -112.5 -536.5t-311.5 -440.5l-168 188q160 150 250 355.5t90 433.5q0 229 -90.5 433t-251.5 355z" />
<glyph unicode="*" horiz-adv-x="1179" d="M74 1038l69 217l340 -118l-8 358h230l-9 -356l340 116l70 -217l-344 -104l217 -285l-184 -135l-205 293l-205 -293l-184 135l213 287z" />
<glyph unicode="+" d="M96 547v233h385v418h256v-418h383v-233h-383v-420h-256v420h-385z" />
<glyph unicode="," horiz-adv-x="565" d="M39 -127q136 38 192 109q-58 18 -95.5 66.5t-37.5 111.5q0 75 54 127.5t129 52.5q77 0 129 -54t57 -134q8 -159 -92.5 -285.5t-296.5 -157.5z" />
<glyph unicode="-" horiz-adv-x="1054" d="M160 414v264h737v-264h-737z" />
<glyph unicode="." horiz-adv-x="565" d="M98 160q0 75 54 127.5t129 52.5t128.5 -52.5t53.5 -127.5q0 -76 -53.5 -130.5t-128.5 -54.5t-129 54.5t-54 130.5z" />
<glyph unicode="/" horiz-adv-x="991" d="M20 -143l654 1607h297l-654 -1607h-297z" />
<glyph unicode="0" horiz-adv-x="1249" d="M94 676q0 354 123 525t408 171t408.5 -171t123.5 -525t-123.5 -525t-408.5 -171t-408 171t-123 525zM381 676q0 -236 55.5 -339.5t188.5 -103.5q134 0 188.5 103t54.5 340q0 238 -54.5 341t-188.5 103q-133 0 -188.5 -103.5t-55.5 -340.5z" />
<glyph unicode="1" horiz-adv-x="841" d="M49 1137l375 215h266v-1352h-309v1014v6l-277 -141z" />
<glyph unicode="2" horiz-adv-x="1128" d="M80 922q10 213 148.5 331.5t359.5 118.5q121 0 212.5 -36.5t143.5 -98.5t77.5 -135.5t25.5 -155.5q0 -56 -13.5 -111t-32.5 -100.5t-57.5 -99.5t-71 -93.5t-91 -97.5t-99.5 -95.5t-113 -102.5l13 2q74 2 196 2h271v-250h-924v184q68 68 151 146.5t136.5 128.5 t112.5 108.5t94.5 100.5t66.5 88.5t45 90t14 87.5q0 80 -44.5 131t-131.5 51q-99 0 -157.5 -71t-65.5 -207z" />
<glyph unicode="3" horiz-adv-x="1175" d="M94 313l256 103q26 -95 76 -140t145 -45q100 0 154.5 47.5t54.5 135.5q-1 82 -54.5 118.5t-164.5 36.5h-166v211h152q202 0 205 166q2 83 -44.5 128.5t-134.5 45.5q-167 0 -202 -164l-262 76q37 176 162.5 258t318.5 82q225 0 345 -102t120 -275q0 -74 -22.5 -135.5 t-57.5 -98.5t-72.5 -57t-71.5 -20v-6q42 0 85 -19t80.5 -54t61 -95t23.5 -133q0 -182 -137.5 -289.5t-376.5 -107.5q-203 0 -318.5 83.5t-154.5 249.5z" />
<glyph unicode="4" horiz-adv-x="1071" d="M57 307v156l459 889h412v-815h78v-230h-78v-307h-266v307h-605zM369 537h293l2 378l4 185z" />
<glyph unicode="5" horiz-adv-x="1081" d="M92 686l98 666h721v-246h-499l-27 -182q67 18 141 18q206 0 350 -140t144 -343q0 -204 -144.5 -349t-349.5 -145q-139 0 -255 73t-177 193l232 111q31 -55 84 -87t116 -32q99 0 168.5 69.5t69.5 168.5q0 97 -69 165t-169 68q-66 0 -121 -33.5t-81 -87.5z" />
<glyph unicode="6" horiz-adv-x="1110" d="M68 459q0 118 55 225l285 670h299l-170 -402h22q205 0 349.5 -144.5t144.5 -348.5t-144.5 -349t-349.5 -145q-133 0 -246 66.5t-179 180t-66 247.5zM326 461q0 -98 68 -168t165 -70q99 0 168.5 69.5t69.5 168.5q0 97 -69 165t-169 68q-97 0 -165 -68t-68 -165z" />
<glyph unicode="7" horiz-adv-x="1036" d="M51 1085v267h955l-543 -1352h-301l448 1085h-559z" />
<glyph unicode="8" horiz-adv-x="1089" d="M68 350q0 122 66 212t179 132v2q-91 40 -145.5 125t-54.5 189q0 69 25.5 131.5t76 114t136 82t194.5 30.5q110 0 195.5 -30.5t135.5 -82t75.5 -114t25.5 -133.5q0 -102 -50.5 -187.5t-148.5 -124.5v-2q115 -43 179.5 -133.5t64.5 -210.5q0 -77 -28 -142t-84 -117 t-149.5 -81.5t-215.5 -29.5q-121 0 -214.5 29.5t-150 81t-84.5 117t-28 142.5zM338 367q0 -84 57.5 -134.5t149.5 -50.5q93 0 150 50.5t57 134.5q0 86 -57.5 138t-149.5 52q-90 0 -148.5 -52.5t-58.5 -137.5zM373 993q0 -76 49 -123t123 -47t123 47t49 123q0 75 -48.5 121.5 t-123.5 46.5t-123.5 -46.5t-48.5 -121.5z" />
<glyph unicode="9" horiz-adv-x="1091" d="M53 895q0 134 66.5 247t180 178.5t247.5 65.5t247 -65.5t178.5 -178.5t65.5 -247q0 -106 -43 -203l-299 -692h-301l172 401h-20q-134 0 -247.5 66.5t-180 180t-66.5 247.5zM311 893q0 -97 69 -165.5t167 -68.5q97 0 165 68.5t68 165.5q0 98 -68 167.5t-165 69.5 q-98 0 -167 -69.5t-69 -167.5z" />
<glyph unicode=":" horiz-adv-x="595" d="M115 160q0 75 53.5 127.5t128.5 52.5t128.5 -52.5t53.5 -127.5q0 -76 -53.5 -130.5t-128.5 -54.5t-128.5 54.5t-53.5 130.5zM115 870q0 75 53.5 128t128.5 53t128.5 -53t53.5 -128q0 -76 -53.5 -130t-128.5 -54t-128.5 54t-53.5 130z" />
<glyph unicode=";" horiz-adv-x="595" d="M57 -127q134 38 193 109q-59 17 -96 65.5t-37 112.5q0 75 53.5 127.5t128.5 52.5q77 0 129 -54t57 -134q8 -159 -92.5 -285.5t-296.5 -157.5zM123 866q0 76 53.5 130.5t128.5 54.5t128.5 -54.5t53.5 -130.5q0 -75 -53.5 -127.5t-130.5 -52.5q-75 0 -128 52.5t-52 127.5z " />
<glyph unicode="&#x3c;" d="M121 467v283l999 448v-293l-717 -297l717 -297v-293z" />
<glyph unicode="=" d="M123 313v226h973v-226h-973zM123 750v225h973v-225h-973z" />
<glyph unicode="&#x3e;" d="M96 18v293l717 297l-717 297v293l1000 -448v-283z" />
<glyph unicode="?" horiz-adv-x="1153" d="M152 1153q56 117 167 187.5t246 70.5q191 0 325 -131.5t134 -318.5q0 -155 -96.5 -276.5t-245.5 -160.5v-129h-246v338l123 15q95 9 157 68t62 145q0 87 -62.5 148.5t-150.5 61.5q-64 0 -115.5 -34t-76.5 -90zM383 152q0 72 52 122t126 50t126 -50t52 -122t-52.5 -123.5 t-125.5 -51.5t-125.5 51.5t-52.5 123.5z" />
<glyph unicode="@" horiz-adv-x="1931" d="M98 483q0 186 65.5 347.5t181 277.5t283 182t363.5 66q138 0 261 -31.5t229.5 -99t183 -165.5t120.5 -239t44 -311q0 -242 -90.5 -380t-270.5 -138q-134 0 -190 90q-62 -68 -151 -106.5t-191 -38.5q-99 0 -188.5 37.5t-156.5 104t-107 165t-40 213.5q0 116 40.5 215 t108.5 165t157 103t186 37q182 0 313 -121v82h256v-688q0 -96 45 -96q49 0 87 112t38 271q0 165 -51.5 294t-144 210.5t-217 123t-275.5 41.5q-169 0 -307 -52.5t-232 -147t-145 -228.5t-51 -295q0 -217 89 -384t251.5 -259t374.5 -92q188 0 350 78l53 -137 q-177 -88 -395 -88q-188 0 -351 66.5t-278.5 183t-181.5 280t-66 352.5zM729 459q0 -116 76 -191t182 -75q99 0 173 58.5t89 154.5v104q-17 98 -91 156.5t-171 58.5q-105 0 -181.5 -76.5t-76.5 -189.5z" />
<glyph unicode="A" horiz-adv-x="1361" d="M16 0l473 1352h383l474 -1352h-322l-76 240h-540l-78 -240h-314zM489 498h377l-127 395l-59 209h-4l-58 -207z" />
<glyph unicode="B" horiz-adv-x="1370" d="M152 0v1352h628q242 0 363 -94t121 -263q0 -130 -69.5 -209.5t-197.5 -101.5v-2q150 -23 225.5 -107.5t75.5 -214.5q0 -169 -126.5 -264.5t-366.5 -95.5h-653zM463 233h299q207 0 207 162t-207 162h-299v-324zM463 793h264q207 0 207 159q0 160 -207 160h-264v-319z" />
<glyph unicode="C" horiz-adv-x="1402" d="M72 676q0 189 93 349.5t253 253.5t348 93q177 0 329 -83t246 -224l-249 -156q-57 77 -142 121.5t-184 44.5q-165 0 -281 -117t-116 -284q0 -165 116.5 -282.5t280.5 -117.5q100 0 185.5 45t140.5 123l251 -155q-94 -143 -246.5 -227.5t-330.5 -84.5q-188 0 -348 94 t-253 255.5t-93 351.5z" />
<glyph unicode="D" horiz-adv-x="1474" d="M152 0v1352h581q318 0 490 -176t172 -500t-172 -500t-490 -176h-581zM473 248h236q178 0 272 115t94 313q0 200 -94 315t-272 115h-236v-858z" />
<glyph unicode="E" horiz-adv-x="1304" d="M152 0v1352h1036v-252h-715v-309h623v-242h-623v-297h741v-252h-1062z" />
<glyph unicode="F" horiz-adv-x="1224" d="M143 0v1352h1035v-279h-713v-336h620v-278h-620v-459h-322z" />
<glyph unicode="G" horiz-adv-x="1517" d="M66 676q0 143 55 272t147.5 222.5t221.5 148.5t272 55q164 0 308 -71t243 -195l-246 -174q-55 67 -134.5 105t-170.5 38q-166 0 -280.5 -117t-114.5 -286q0 -166 115 -284t280 -118q114 0 209 58t147 155h-289v244h635v-80q-6 -186 -101.5 -341.5t-254.5 -245t-346 -89.5 q-143 0 -272 55.5t-222 149t-147.5 224t-54.5 274.5z" />
<glyph unicode="H" horiz-adv-x="1497" d="M162 0v1352h321v-545h531v545h321v-1352h-321v510h-531v-510h-321z" />
<glyph unicode="I" horiz-adv-x="624" d="M150 0v1352h325v-1352h-325z" />
<glyph unicode="J" d="M59 469v109l314 -3v-129q7 -99 61 -154.5t133 -55.5q89 0 145 52t66 148q4 98 4 152v764h322v-854q0 -251 -141.5 -384.5t-395.5 -133.5q-236 0 -367.5 127.5t-140.5 361.5z" />
<glyph unicode="K" horiz-adv-x="1400" d="M152 0v1352h321v-619l516 619h361l-469 -549l491 -803h-366l-355 598l-178 -207v-391h-321z" />
<glyph unicode="L" horiz-adv-x="1204" d="M143 0v1352h322v-1088h692v-264h-1014z" />
<glyph unicode="M" horiz-adv-x="1798" d="M139 0v1352h459l225 -711l82 -295h4l82 295l226 711h442v-1352h-285v659l12 365h-4l-354 -1024h-260l-350 1024h-6l12 -365v-659h-285z" />
<glyph unicode="N" horiz-adv-x="1495" d="M152 0v1352h360l442 -748l111 -205h2l-8 236v717h284v-1352h-358l-444 750l-109 208h-4l8 -239v-719h-284z" />
<glyph unicode="O" horiz-adv-x="1527" d="M66 676q0 142 55.5 271t149 222t222.5 148t271 55t271 -55t222 -148t148 -222t55 -271q0 -190 -93 -351.5t-253.5 -255.5t-349.5 -94t-350 94t-254.5 255.5t-93.5 351.5zM362 674q0 -165 118.5 -283.5t283.5 -118.5t283 118.5t118 283.5q0 166 -117.5 284.5t-283.5 118.5 t-284 -118.5t-118 -284.5z" />
<glyph unicode="P" horiz-adv-x="1355" d="M152 0v1352h622q235 0 380.5 -135.5t145.5 -342.5q0 -101 -38 -190.5t-105.5 -156t-167 -105.5t-215.5 -39h-307v-383h-315zM467 627h258q114 0 182 70.5t68 170.5t-68 169t-182 69h-258v-479z" />
<glyph unicode="Q" horiz-adv-x="1552" d="M66 676q0 142 55.5 271t149 222t222.5 148t271 55t271 -55t222 -148t148 -222t55 -271q0 -130 -44.5 -248.5t-125.5 -212.5l168 -235l-239 -170l-164 229q-140 -64 -291 -64q-189 0 -350 94t-254.5 255.5t-93.5 351.5zM362 674q0 -165 118.5 -283.5t283.5 -118.5 t283 118.5t118 283.5q0 166 -117.5 284.5t-283.5 118.5t-284 -118.5t-118 -284.5z" />
<glyph unicode="R" horiz-adv-x="1382" d="M152 0v1352h622q235 0 380.5 -135.5t145.5 -342.5q0 -134 -65 -248.5t-180 -181.5l260 -444h-346l-213 373h-289v-373h-315zM467 627h258q114 0 182 70.5t68 170.5t-68 169t-182 69h-258v-479z" />
<glyph unicode="S" horiz-adv-x="1220" d="M88 346q0 53 8 100h256q-2 -16 -2 -71q0 -65 67 -118.5t185 -53.5q103 0 162 44t59 113q0 35 -17.5 64t-40.5 47t-65 36t-69 26.5t-76 21.5q-84 23 -140.5 42.5t-121 53.5t-102.5 73t-63.5 99t-25.5 135q0 127 65.5 222.5t179 144.5t259.5 49q226 0 357 -119t131 -335 h-275q0 107 -54 164t-157 57q-91 0 -143.5 -42t-52.5 -118q0 -29 9 -52t30.5 -42t42 -32t58.5 -27t64.5 -22t75.5 -22q80 -20 142 -42.5t120 -56.5t96 -76.5t60.5 -102t22.5 -131.5q0 -101 -40.5 -178.5t-112.5 -125.5t-165 -72t-203 -24q-246 0 -385 106t-139 265z" />
<glyph unicode="T" horiz-adv-x="1316" d="M51 1071v281h1215v-281h-447v-1071h-319v1071h-449z" />
<glyph unicode="U" horiz-adv-x="1419" d="M119 543v809h321v-807q0 -156 67 -232.5t204 -76.5t203.5 76t66.5 233v807h322v-809q0 -280 -149.5 -421.5t-442.5 -141.5t-442.5 141.5t-149.5 421.5z" />
<glyph unicode="V" horiz-adv-x="1384" d="M18 1352h338l265 -795l75 -238l74 234l268 799h328l-485 -1352h-377z" />
<glyph unicode="W" horiz-adv-x="2025" d="M37 1352h336l231 -1008l254 1008h320l260 -1006l229 1006h322l-381 -1352h-355l-174 672l-61 254h-4l-62 -254l-170 -672h-364z" />
<glyph unicode="X" horiz-adv-x="1384" d="M37 0l452 682l-423 670h368l273 -441l272 441h336l-424 -660l450 -692h-372l-293 436l-285 -436h-354z" />
<glyph unicode="Y" horiz-adv-x="1296" d="M10 1352h334l203 -385l102 -205l103 205l202 385h332l-477 -852v-500h-322v500z" />
<glyph unicode="Z" horiz-adv-x="1280" d="M59 0l689 1077h-609v275h1112l-698 -1098h643v-254h-1137z" />
<glyph unicode="[" horiz-adv-x="765" d="M166 -344v1810h555v-278h-279v-1256h279v-276h-555z" />
<glyph unicode="\" horiz-adv-x="927" d="M-43 1464h297l653 -1607h-297z" />
<glyph unicode="]" horiz-adv-x="765" d="M45 -68h279v1256h-279v278h555v-1810h-555v276z" />
<glyph unicode="^" d="M41 727l432 758h270l433 -758h-275l-293 528l-293 -528h-274z" />
<glyph unicode="_" horiz-adv-x="1083" d="M-10 -145h1104v-256h-1104v256z" />
<glyph unicode="`" horiz-adv-x="1003" d="M203 1516h274l168 -353h-268z" />
<glyph unicode="a" horiz-adv-x="1177" d="M88 240q0 116 77.5 193t237.5 118q67 20 353 53v53q0 75 -48 119.5t-128 44.5q-182 0 -222 -159l-256 73q28 146 153.5 227.5t336.5 81.5q230 0 354.5 -96.5t124.5 -288.5v-395v-272l-283 -2v137q-53 -73 -146.5 -113.5t-211.5 -40.5q-162 0 -252 70t-90 197zM391 285 q0 -49 40 -77t101 -28q85 0 154.5 45.5t69.5 116.5v111q-150 -12 -248 -41q-56 -17 -86.5 -51t-30.5 -76z" />
<glyph unicode="b" horiz-adv-x="1253" d="M109 0v1464h317v-508q122 88 270 88q97 0 186 -38t157 -105.5t108.5 -168.5t40.5 -220q0 -118 -40 -220t-107 -170.5t-156.5 -107.5t-188.5 -39q-189 0 -317 125v-100h-270zM379 506q0 -117 78 -191.5t188 -74.5q106 0 182 77.5t76 196.5q0 116 -76.5 194t-181.5 78 q-110 0 -188 -74.5t-78 -193.5v-12z" />
<glyph unicode="c" horiz-adv-x="1128" d="M68 508q0 149 71.5 273t195.5 195t271 71q156 0 280 -79t191 -216l-231 -119q-34 68 -99.5 108.5t-144.5 40.5q-109 0 -185.5 -80t-76.5 -194t76.5 -192t185.5 -78q77 0 140 36t98 99l235 -115q-66 -134 -189.5 -208.5t-279.5 -74.5q-148 0 -271 69t-195 191.5t-72 272.5 z" />
<glyph unicode="d" horiz-adv-x="1251" d="M63 512q0 119 40.5 220t108.5 168.5t157 105.5t186 38q148 0 270 -88v508h318v-1464h-271v100q-128 -125 -317 -125q-99 0 -188.5 39t-156.5 107.5t-107 170.5t-40 220zM348 514q0 -119 76 -196.5t182 -77.5q110 0 188 74.5t78 191.5v12q0 119 -78 193.5t-188 74.5 q-105 0 -181.5 -78t-76.5 -194z" />
<glyph unicode="e" horiz-adv-x="1189" d="M68 512q0 111 36 207.5t103 169t170.5 114t230.5 41.5q242 0 379 -138t137 -384q0 -58 -8 -112h-745q23 -100 89.5 -150.5t160.5 -50.5q83 0 144 31.5t81 87.5l258 -88q-45 -126 -173 -194.5t-306 -68.5q-266 0 -411.5 145t-145.5 390zM369 600h471q-18 104 -81 160.5 t-153 56.5q-96 0 -157.5 -54.5t-79.5 -162.5z" />
<glyph unicode="f" horiz-adv-x="886" d="M41 774v230h172v126q0 179 109.5 270t291.5 91q137 0 211 -49v-232q-80 31 -139 31q-82 0 -127 -37t-45 -104v-96h315v-230h-299v-774h-317v774h-172z" />
<glyph unicode="g" horiz-adv-x="1208" d="M76 -195q0 68 48 120.5t142 74.5q-71 30 -113 81t-42 122q0 72 37.5 124t103.5 81q-141 101 -141 274q0 163 130.5 262.5t356.5 99.5q114 0 199 -24l164 147l165 -147l-125 -119q82 -88 82 -219q0 -164 -129.5 -263.5t-355.5 -99.5q-122 0 -231 33q-33 -20 -33 -63 q0 -37 29 -57.5t83 -20.5h347q173 0 267.5 -75.5t94.5 -217.5q0 -177 -154 -267.5t-426 -90.5q-251 0 -375 65.5t-124 179.5zM322 -129q0 -56 69.5 -83.5t218.5 -27.5q144 0 217.5 30t73.5 83q0 86 -137 86h-281q-161 0 -161 -88zM414 678q0 -77 54.5 -128.5t129.5 -51.5 t129.5 51.5t54.5 128.5q0 78 -54 128t-130 50t-130 -50t-54 -128z" />
<glyph unicode="h" horiz-adv-x="1220" d="M109 0v1464h317v-524q129 104 326 104q163 0 261.5 -94.5t98.5 -271.5v-678h-317v588q0 213 -162 213q-89 0 -148 -64.5t-59 -195.5v-541h-317z" />
<glyph unicode="i" horiz-adv-x="581" d="M106 1343q0 75 54.5 130t130.5 55q75 0 129.5 -55t54.5 -130t-54.5 -129.5t-129.5 -54.5q-76 0 -130.5 54.5t-54.5 129.5zM133 0v1024h318v-1024h-318z" />
<glyph unicode="j" horiz-adv-x="575" d="M0 -156q69 0 105 35t36 115v1030h318v-1090q0 -79 -13.5 -138.5t-41.5 -100.5t-64.5 -67.5t-91 -41.5t-112 -20.5t-134.5 -5.5zM113 1343q0 77 54.5 133t131.5 56q75 0 130.5 -56.5t55.5 -132.5q0 -75 -55.5 -130.5t-130.5 -55.5q-77 0 -131.5 55t-54.5 131z" />
<glyph unicode="k" horiz-adv-x="1220" d="M100 0v1464h318v-889l416 449h354l-381 -401l405 -623h-356l-262 434l-176 -190v-244h-318z" />
<glyph unicode="l" horiz-adv-x="550" d="M117 0v1464h317v-1464h-317z" />
<glyph unicode="m" horiz-adv-x="1918" d="M137 0v1024h283l10 -188q50 103 139 155.5t203 52.5q117 0 204 -52t126 -154q48 100 140.5 153t205.5 53q157 0 256.5 -94.5t99.5 -271.5l-4 -678h-313v608q0 191 -158 191q-89 0 -145 -65t-56 -185v-549h-317v608q0 191 -156 191q-84 0 -142 -64t-58 -192v-543h-318z " />
<glyph unicode="n" horiz-adv-x="1222" d="M109 0v1024h282l10 -188q50 104 140 156t211 52q163 0 261.5 -94.5t98.5 -271.5v-678h-317v588q0 114 -42.5 162.5t-119.5 48.5q-90 0 -148.5 -63.5t-58.5 -194.5v-541h-317z" />
<glyph unicode="o" horiz-adv-x="1183" d="M49 508q0 149 73 273t197.5 195t272.5 71t272.5 -71t197.5 -195t73 -273t-73 -272t-197.5 -192t-272.5 -69t-272.5 69t-197.5 192t-73 272zM324 508q0 -114 77.5 -191t190.5 -77t190.5 77t77.5 191t-78 195t-190 81t-190 -81t-78 -195z" />
<glyph unicode="p" horiz-adv-x="1253" d="M106 -430v1454h283v-102q128 122 318 122q99 0 188 -38.5t156.5 -106.5t107 -169.5t39.5 -219.5q0 -119 -40.5 -220.5t-108.5 -169t-156.5 -105.5t-185.5 -38q-156 0 -283 99v-506h-318zM389 504q0 -119 78 -193.5t188 -74.5q105 0 181.5 78t76.5 194q0 119 -76 196.5 t-182 77.5q-110 0 -188 -74.5t-78 -191.5v-12z" />
<glyph unicode="q" horiz-adv-x="1267" d="M76 512q0 119 40.5 220t108.5 168.5t156.5 105.5t185.5 38q91 0 174.5 -34.5t145.5 -96.5v111h276v-1454h-317v498q-124 -93 -279 -93q-99 0 -188 39t-156.5 107.5t-107 170.5t-39.5 220zM360 514q0 -119 76 -196.5t182 -77.5t183 67.5t84 177.5v50q-6 113 -83 182 t-184 69q-105 0 -181.5 -78t-76.5 -194z" />
<glyph unicode="r" horiz-adv-x="882" d="M113 0v1024h303v-106q101 126 307 126q72 0 108 -22l-34 -272q-48 30 -129 30q-99 0 -168.5 -67t-69.5 -191v-522h-317z" />
<glyph unicode="s" horiz-adv-x="1085" d="M66 168l165 184q80 -146 306 -149q77 0 123.5 22t46.5 60q0 32 -46.5 54.5t-148.5 43.5q-227 46 -323.5 121.5t-96.5 204.5q0 64 30.5 123.5t87 107t148.5 76t205 28.5q172 0 279.5 -50.5t177.5 -153.5l-176 -166q-46 75 -112 111t-161 36q-78 0 -123 -26t-45 -62 q0 -38 45 -63.5t158 -48.5q217 -43 313.5 -116t96.5 -202q0 -146 -122 -236t-353 -90q-337 0 -475 191z" />
<glyph unicode="t" horiz-adv-x="933" d="M51 774v230h182v329h318v-329h317v-230h-317v-373q0 -143 135 -143q59 0 143 43l43 -240q-108 -81 -278 -81q-167 0 -264 94.5t-97 265.5v434h-182z" />
<glyph unicode="u" horiz-adv-x="1210" d="M98 371v653h318v-600q0 -109 39 -154t118 -45q94 0 152.5 64t58.5 190v545h318v-1024h-291l-4 127q-41 -82 -120.5 -118t-213.5 -36q-175 0 -275 95.5t-100 302.5z" />
<glyph unicode="v" horiz-adv-x="1171" d="M20 1024h338l230 -815l233 815h330l-377 -1024h-375z" />
<glyph unicode="w" horiz-adv-x="1855" d="M37 1024h334l186 -786l215 786h313l213 -782l187 782h336l-318 -1024h-375l-204 688l-195 -688h-375z" />
<glyph unicode="x" horiz-adv-x="1210" d="M51 0l342 520l-325 504h342l202 -326l205 326h342l-338 -506l346 -518h-350l-217 340l-217 -340h-332z" />
<glyph unicode="y" horiz-adv-x="1191" d="M33 -365l71 220q60 -60 175 -60q63 0 101 24t62 87l31 76l-117 272l-309 770h350l174 -543l52 -182l59 195l172 530h317l-391 -1053q-79 -227 -186.5 -319t-290.5 -92q-170 0 -270 75z" />
<glyph unicode="z" horiz-adv-x="1040" d="M20 0l535 788h-481v236h942l-522 -797l507 2v-229h-981z" />
<glyph unicode="{" horiz-adv-x="817" d="M70 455v213q124 0 176.5 48.5t52.5 164.5v301q0 178 105.5 254.5t353.5 76.5l14 -206q-114 0 -164.5 -37.5t-50.5 -120.5v-332q0 -166 -131 -256q131 -90 131 -256v-332q0 -83 50.5 -120t164.5 -37l-14 -207q-248 0 -353.5 76.5t-105.5 255.5v301q0 116 -52.5 164.5 t-176.5 48.5z" />
<glyph unicode="|" horiz-adv-x="610" d="M166 -344v1810h278v-1810h-278z" />
<glyph unicode="}" horiz-adv-x="817" d="M45 -184q114 0 164.5 37t50.5 120v332q0 166 131 256q-131 90 -131 256v332q0 83 -50.5 120.5t-164.5 37.5l14 206q248 0 353.5 -76.5t105.5 -254.5v-301q0 -115 52.5 -164t177.5 -49v-213q-125 0 -177.5 -49t-52.5 -164v-301q0 -179 -105.5 -255.5t-353.5 -76.5z" />
<glyph unicode="~" horiz-adv-x="1183" d="M78 483q21 381 319 381q64 0 120 -21t89 -45.5t72.5 -45.5t73.5 -21q84 0 102 125h252q-11 -188 -91 -284.5t-229 -96.5q-64 0 -120 21t-88.5 45.5t-72 45.5t-73.5 21q-84 0 -102 -125h-252z" />
<glyph unicode="&#xa1;" horiz-adv-x="579" d="M106 860q0 76 54 130t129 54q76 0 129 -53.5t53 -130.5q0 -76 -53.5 -129t-130.5 -53q-75 0 -128.5 53.5t-52.5 128.5zM123 -328l33 893h266l33 -893h-332z" />
<glyph unicode="&#xa2;" horiz-adv-x="1155" d="M68 508q0 204 134 357t335 186v178h159v-176q138 -19 251 -99.5t175 -201.5l-241 -113q-28 56 -76.5 95t-108.5 54v-561q58 15 105.5 52t75.5 88l241 -109q-60 -119 -172.5 -198.5t-249.5 -98.5v-166h-159v168q-201 33 -335 186.5t-134 358.5zM334 508q0 -95 57 -172 t146 -107v557q-89 -30 -146 -106.5t-57 -171.5z" />
<glyph unicode="&#xa3;" horiz-adv-x="1257" d="M68 168q0 86 72.5 138t183.5 52q90 0 168 -20v2q0 96 -52 192h-329v191h194q-50 72 -70 128t-20 118q0 172 127.5 287.5t349.5 115.5q393 0 471 -352l-258 -121q-30 127 -81 182.5t-142 55.5q-86 0 -137 -45t-51 -121q0 -46 20.5 -94t73.5 -125l20 -29h393v-191h-301 q15 -62 15 -122q0 -74 -27 -160q97 -51 180 -51q74 0 107.5 42t32.5 132l196 -21q15 -102 -12 -185.5t-97 -135t-171 -51.5q-92 0 -166 32t-160 90q-109 -122 -289 -122q-107 0 -174 50.5t-67 137.5zM236 168q0 -29 22.5 -44t60.5 -15q102 0 142 79q-69 37 -139 37 q-86 0 -86 -57z" />
<glyph unicode="&#xa4;" horiz-adv-x="1310" d="M76 281l196 178q-53 92 -53 217t53 217l-196 176l184 184l182 -200q91 49 215 49q121 0 213 -47l179 198l186 -184l-195 -180q52 -96 52 -213q0 -125 -54 -219l197 -176l-186 -185l-181 199q-92 -47 -211 -47q-123 0 -217 49l-180 -201zM469 676q0 -89 51.5 -144 t136.5 -55q82 0 133.5 55t51.5 144q0 87 -51.5 141.5t-133.5 54.5q-85 0 -136.5 -54t-51.5 -142z" />
<glyph unicode="&#xa5;" horiz-adv-x="1349" d="M35 1352h332l307 -521h4l305 521h332l-457 -738l117 9h246v-123h-404v-140h404v-116h-404v-244h-285v244h-401v116h401v140h-401v123h244l117 -9z" />
<glyph unicode="&#xa6;" horiz-adv-x="532" d="M127 -344v772h279v-772h-279zM127 694v772h279v-772h-279z" />
<glyph unicode="&#xa7;" horiz-adv-x="1247" d="M41 567q0 188 160 295q-37 64 -37 154q0 159 127.5 257.5t345.5 98.5q176 0 281.5 -49t183.5 -149l-168 -154q-55 73 -122 106t-175 33q-111 0 -170 -31t-59 -84q0 -60 63 -91.5t229 -49.5q271 -27 389.5 -107.5t118.5 -228.5q0 -187 -157 -295q36 -62 36 -155 q0 -157 -125 -249.5t-341 -92.5q-173 0 -282 48.5t-189 149.5l169 156q52 -75 120 -108t177 -33q228 0 228 100q0 60 -64 92.5t-229 50.5q-271 27 -390.5 107.5t-119.5 228.5zM276 612q0 -58 64.5 -89t228.5 -48q206 -22 312 -67q94 45 94 114q0 58 -64.5 89t-230.5 48 q-192 18 -311 68q-93 -46 -93 -115z" />
<glyph unicode="&#xa8;" horiz-adv-x="1003" d="M123 1309q0 68 47.5 116t114.5 48t115.5 -48.5t48.5 -115.5q0 -66 -48.5 -114t-115.5 -48t-114.5 48t-47.5 114zM561 1309q0 67 48.5 115.5t115.5 48.5t115.5 -48.5t48.5 -115.5q0 -66 -48.5 -114t-115.5 -48t-115.5 48t-48.5 114z" />
<glyph unicode="&#xa9;" horiz-adv-x="1576" d="M88 678q0 142 56.5 272.5t151.5 225t226.5 150.5t274.5 56t273.5 -56t225 -150.5t151 -225t56.5 -272.5q0 -143 -56.5 -274.5t-151 -226.5t-225 -151.5t-273.5 -56.5q-191 0 -354.5 95.5t-259 259t-95.5 354.5zM254 676q0 -146 73 -271t198 -198.5t272 -73.5 q146 0 271 73.5t198 198.5t73 271q0 148 -73 274t-198 199.5t-271 73.5q-147 0 -272 -73.5t-198 -199.5t-73 -274zM377 670q0 175 124.5 297.5t301.5 122.5q122 0 223.5 -63.5t155.5 -168.5l-181 -84q-28 56 -81.5 89.5t-118.5 33.5q-92 0 -157.5 -66.5t-65.5 -158.5 q0 -94 65.5 -161t157.5 -67q63 0 115.5 32t82.5 85l183 -82q-53 -104 -154.5 -166.5t-224.5 -62.5q-177 0 -301.5 123t-124.5 297z" />
<glyph unicode="&#xaa;" horiz-adv-x="858" d="M37 805q0 90 64.5 143t211.5 82l168 33v27q0 50 -28 77t-80 27q-112 0 -135 -109l-191 52q18 104 103.5 162.5t234.5 58.5q334 0 334 -273v-241q0 -64 57 -64q30 0 43 8l-18 -131q-46 -22 -109 -22q-142 0 -172 110q-75 -110 -258 -110q-109 0 -167 43.5t-58 126.5z M57 326v170h734v-170h-734zM266 844q0 -64 86 -64q50 0 89.5 28.5t39.5 76.5v76l-98 -23q-60 -14 -88.5 -36t-28.5 -58z" />
<glyph unicode="&#xab;" horiz-adv-x="1146" d="M68 543l256 401h282l-250 -401l250 -402h-282zM543 543l256 401h282l-250 -401l250 -402h-282z" />
<glyph unicode="&#xac;" d="M113 547v233h993v-569h-262v336h-731z" />
<glyph unicode="&#xad;" horiz-adv-x="1054" d="M160 414v264h737v-264h-737z" />
<glyph unicode="&#xae;" horiz-adv-x="1558" d="M72 678q0 143 56.5 273t151.5 224.5t226 150.5t274 56q190 0 353 -94.5t258.5 -257t95.5 -352.5q0 -191 -95.5 -354.5t-258.5 -259t-353 -95.5q-143 0 -274 56.5t-226 151.5t-151.5 226.5t-56.5 274.5zM238 676q0 -146 72.5 -271t197.5 -198.5t272 -73.5 q109 0 209.5 43.5t173.5 116.5t116.5 173.5t43.5 209.5q0 148 -73.5 274t-198.5 199.5t-271 73.5q-147 0 -272 -73.5t-197.5 -199.5t-72.5 -274zM487 307v748h351q118 0 195 -68t77 -176q0 -84 -44 -142t-122 -85l182 -277h-233l-141 258h-70v-258h-195zM682 702h115 q114 0 114 97q0 96 -114 96h-115v-193z" />
<glyph unicode="&#xaf;" horiz-adv-x="1003" d="M125 1176v200h754v-200h-754z" />
<glyph unicode="&#xb0;" horiz-adv-x="946" d="M131 1032q0 141 101 241.5t243 100.5q141 0 241.5 -100.5t100.5 -241.5q0 -142 -100.5 -243t-241.5 -101q-143 0 -243.5 101t-100.5 243zM346 1032q0 -54 37.5 -92.5t91.5 -38.5t92.5 38.5t38.5 92.5t-38.5 91.5t-92.5 37.5t-91.5 -37.5t-37.5 -91.5z" />
<glyph unicode="&#xb1;" d="M96 2v219h1024v-219h-1024zM96 737v226h396v368h235v-368h393v-226h-393v-368h-235v368h-396z" />
<glyph unicode="&#xb2;" horiz-adv-x="667" d="M41 1233q6 125 87.5 200.5t215.5 75.5q74 0 130 -22t88 -60t47.5 -83.5t15.5 -96.5q0 -101 -58.5 -191t-181.5 -202h90h152v-172h-559v117q31 31 85 83.5t79.5 78t64 65t56.5 62.5t38 52.5t27.5 53t7.5 45.5q0 96 -90 96q-109 0 -115 -153z" />
<glyph unicode="&#xb3;" horiz-adv-x="724" d="M51 883l187 75q8 -116 118 -116q48 0 78.5 22.5t30.5 69.5q0 84 -109 84h-49v127h43q50 0 75.5 24t25.5 68q0 42 -27 65t-68 23q-95 0 -106 -108l-178 69q21 106 98.5 162.5t191.5 56.5q137 0 214 -63.5t77 -165.5q0 -75 -35 -120.5t-77 -63.5q46 -11 87.5 -60.5 t41.5 -126.5q0 -103 -82 -169t-215 -66q-126 0 -209 57t-113 156z" />
<glyph unicode="&#xb4;" horiz-adv-x="1003" d="M358 1163l168 353h275l-174 -353h-269z" />
<glyph unicode="&#xb5;" horiz-adv-x="1241" d="M119 -430v1454h317v-600q0 -109 40.5 -154t119.5 -45q91 0 146 54t65 155v590h317v-1024h-278l-12 186q-89 -206 -324 -206q-40 0 -74 6v-416h-317z" />
<glyph unicode="&#xb6;" horiz-adv-x="1480" d="M74 913q0 215 139.5 327t417.5 112h706v-1557h-260v1313h-227v-1313h-262v682q-249 2 -381.5 113.5t-132.5 322.5z" />
<glyph unicode="&#xb7;" horiz-adv-x="524" d="M78 727q0 75 53.5 127.5t128.5 52.5t128.5 -52.5t53.5 -127.5q0 -76 -53.5 -130t-128.5 -54t-128.5 54t-53.5 130z" />
<glyph unicode="&#xb8;" horiz-adv-x="1003" d="M252 -360l76 153q59 -59 147 -59q51 0 82 27.5t31 76.5q0 57 -46.5 95t-170.5 73l86 68q157 -25 242 -101.5t85 -175.5q0 -113 -77 -175t-205 -62q-163 0 -250 80z" />
<glyph unicode="&#xb9;" horiz-adv-x="557" d="M20 1362l267 133h190v-813h-223v498v47l-139 -72z" />
<glyph unicode="&#xba;" horiz-adv-x="823" d="M49 995q0 171 96 267t267 96q173 0 268.5 -96t95.5 -267t-95.5 -265.5t-268.5 -94.5q-172 0 -267.5 95t-95.5 265zM63 326v170h697v-170h-697zM289 995q0 -104 29.5 -153t93.5 -49q65 0 95 49t30 153q0 105 -30 155t-95 50q-64 0 -93.5 -50t-29.5 -155z" />
<glyph unicode="&#xbb;" horiz-adv-x="1146" d="M66 141l249 402l-249 401h282l256 -401l-256 -402h-282zM541 141l250 402l-250 401h282l256 -401l-256 -402h-282z" />
<glyph unicode="&#xbc;" horiz-adv-x="1574" d="M20 1229l267 133h190v-813h-223v498v47l-139 -72zM395 0l553 1354h232l-551 -1354h-234zM911 176v94l275 535h291v-479h47v-150h-47v-184h-183v184h-383zM1124 326h170v217l2 110z" />
<glyph unicode="&#xbd;" horiz-adv-x="1691" d="M20 1229l267 133h190v-813h-223v498v47l-139 -72zM395 0l553 1354h232l-551 -1354h-234zM1067 543q6 125 87.5 200.5t215.5 75.5q74 0 130 -22t88 -60t47.5 -83.5t15.5 -96.5q0 -101 -58.5 -191t-181.5 -202h90h152v-172h-559v117q31 31 85 83.5t79.5 78t64 65t56.5 62.5 t38 52.5t27.5 53t7.5 45.5q0 96 -90 96q-109 0 -115 -153z" />
<glyph unicode="&#xbe;" horiz-adv-x="1742" d="M51 750l187 75q8 -116 118 -116q48 0 78.5 22.5t30.5 69.5q0 84 -109 84h-49v127h43q50 0 75.5 24t25.5 68q0 42 -27 65t-68 23q-44 0 -72 -27t-34 -82l-178 70q21 106 98.5 162.5t191.5 56.5q137 0 214 -63.5t77 -165.5q0 -75 -35 -121t-77 -64q47 -11 88 -60t41 -126 q0 -103 -82 -169t-215 -66q-126 0 -209 57t-113 156zM563 0l553 1354h232l-551 -1354h-234zM1079 176v94l275 535h291v-479h47v-150h-47v-184h-183v184h-383zM1292 326h170v217l2 110z" />
<glyph unicode="&#xbf;" horiz-adv-x="1196" d="M174 66q0 155 96.5 276t245.5 160v129h246v-338l-123 -14q-95 -9 -157 -68t-62 -145q0 -89 62.5 -151t150.5 -62q64 0 115.5 34t76.5 90l222 -106q-56 -117 -167.5 -187.5t-246.5 -70.5q-190 0 -324.5 132.5t-134.5 320.5zM459 872q0 73 52 125t126 52t126 -52t52 -125 q0 -70 -52 -120t-126 -50t-126 50t-52 120z" />
<glyph unicode="&#xc0;" horiz-adv-x="1361" d="M16 0l473 1352h383l474 -1352h-322l-76 240h-540l-78 -240h-314zM393 1810h283l112 -323h-264zM489 498h377l-127 395l-59 209h-4l-58 -207z" />
<glyph unicode="&#xc1;" horiz-adv-x="1361" d="M16 0l473 1352h383l474 -1352h-322l-76 240h-540l-78 -240h-314zM489 498h377l-127 395l-59 209h-4l-58 -207zM545 1487l112 323h283l-131 -323h-264z" />
<glyph unicode="&#xc2;" horiz-adv-x="1361" d="M16 0l473 1352h383l474 -1352h-322l-76 240h-540l-78 -240h-314zM297 1479l227 342h312l227 -342h-250l-133 188l-133 -188h-250zM489 498h377l-127 395l-59 209h-4l-58 -207z" />
<glyph unicode="&#xc3;" horiz-adv-x="1361" d="M16 0l473 1352h383l474 -1352h-322l-76 240h-540l-78 -240h-314zM281 1483q15 317 264 317q53 0 96.5 -19t67 -41.5t51.5 -41.5t53 -19q36 0 55 29.5t27 89.5h186q-15 -317 -264 -317q-53 0 -97 19t-67 41.5t-51 41.5t-55 19q-36 0 -55 -29.5t-27 -89.5h-184zM489 498 h377l-127 395l-59 209h-4l-58 -207z" />
<glyph unicode="&#xc4;" horiz-adv-x="1361" d="M16 0l473 1352h383l474 -1352h-322l-76 240h-540l-78 -240h-314zM299 1636q0 68 47.5 116t114.5 48t115.5 -48t48.5 -116q0 -66 -48.5 -113.5t-115.5 -47.5t-114.5 47.5t-47.5 113.5zM489 498h377l-127 395l-59 209h-4l-58 -207zM737 1636q0 68 48.5 116t115.5 48 t115.5 -48t48.5 -116q0 -66 -48.5 -113.5t-115.5 -47.5t-115.5 47.5t-48.5 113.5z" />
<glyph unicode="&#xc5;" horiz-adv-x="1361" d="M16 0l459 1309q-92 64 -92 190q0 118 81 190t218 72q138 0 218.5 -72t80.5 -190q0 -121 -94 -190l459 -1309h-322l-76 240h-540l-78 -240h-314zM489 498h377l-127 395l-59 209h-4l-58 -207zM557 1491q0 -54 34 -86.5t91 -32.5q56 0 89.5 32.5t33.5 86.5t-33.5 86.5 t-89.5 32.5q-57 0 -91 -32.5t-34 -86.5z" />
<glyph unicode="&#xc6;" horiz-adv-x="1882" d="M-14 0l614 1352h1196v-242h-633v-315h484v-230h-484v-323h660v-242h-961v408h-385l-168 -408h-323zM567 625h295v493h-90z" />
<glyph unicode="&#xc7;" horiz-adv-x="1402" d="M72 676q0 189 93 349.5t253 253.5t348 93q177 0 329 -83t246 -224l-249 -156q-57 77 -142 121.5t-184 44.5q-165 0 -281 -117t-116 -284q0 -165 116.5 -282.5t280.5 -117.5q100 0 185.5 45t140.5 123l251 -155q-74 -113 -189.5 -191t-252.5 -106q107 -79 107 -193 q0 -113 -77.5 -175t-205.5 -62q-163 0 -250 80l76 153q59 -59 147 -59q51 0 82 27.5t31 76.5q0 47 -31 81t-112 63q-254 37 -425 234t-171 460z" />
<glyph unicode="&#xc8;" horiz-adv-x="1304" d="M152 0v1352h1036v-252h-715v-309h623v-242h-623v-297h741v-252h-1062zM418 1810h282l113 -323h-264z" />
<glyph unicode="&#xc9;" horiz-adv-x="1304" d="M152 0v1352h1036v-252h-715v-309h623v-242h-623v-297h741v-252h-1062zM528 1487l113 323h283l-131 -323h-265z" />
<glyph unicode="&#xca;" horiz-adv-x="1304" d="M152 0v1352h1036v-252h-715v-309h623v-242h-623v-297h741v-252h-1062zM274 1479l228 342h311l227 -342h-249l-134 188l-133 -188h-250z" />
<glyph unicode="&#xcb;" horiz-adv-x="1304" d="M152 0v1352h1036v-252h-715v-309h623v-242h-623v-297h741v-252h-1062zM276 1636q0 68 47.5 116t114.5 48q68 0 116 -48t48 -116q0 -66 -48.5 -113.5t-115.5 -47.5t-114.5 47.5t-47.5 113.5zM715 1636q0 68 48.5 116t115.5 48t115 -48t48 -116q0 -66 -48 -113.5 t-115 -47.5t-115.5 47.5t-48.5 113.5z" />
<glyph unicode="&#xcc;" horiz-adv-x="624" d="M25 1810h282l113 -323h-264zM150 0v1352h325v-1352h-325z" />
<glyph unicode="&#xcd;" horiz-adv-x="624" d="M150 0v1352h325v-1352h-325zM188 1487l113 323h283l-131 -323h-265z" />
<glyph unicode="&#xce;" horiz-adv-x="624" d="M-72 1479l228 342h311l227 -342h-250l-133 188l-133 -188h-250zM150 0v1352h325v-1352h-325z" />
<glyph unicode="&#xcf;" horiz-adv-x="624" d="M-53 1626q0 70 42.5 111t116.5 41q75 0 119.5 -41t44.5 -111t-44.5 -110.5t-119.5 -40.5q-74 0 -116.5 40.5t-42.5 110.5zM150 0v1352h325v-1352h-325zM354 1626q0 70 43 111t117 41q75 0 118.5 -41t43.5 -111t-43.5 -110.5t-118.5 -40.5q-74 0 -117 40.5t-43 110.5z" />
<glyph unicode="&#xd0;" horiz-adv-x="1497" d="M20 569v215h177v568h581q318 0 490 -176t172 -500t-172 -500t-490 -176h-581v569h-177zM518 248h236q178 0 272 115t94 313q0 200 -94 315t-272 115h-236v-322h289v-215h-289v-321z" />
<glyph unicode="&#xd1;" horiz-adv-x="1495" d="M152 0v1352h360l442 -748l111 -205h2l-8 236v717h284v-1352h-358l-444 750l-109 208h-4l8 -239v-719h-284zM352 1483q15 317 264 317q53 0 96.5 -19t67.5 -41.5t52 -41.5t53 -19q36 0 55 29.5t27 89.5h186q-15 -317 -264 -317q-53 0 -97 19t-67.5 41.5t-51.5 41.5t-55 19 q-36 0 -54.5 -29t-26.5 -90h-185z" />
<glyph unicode="&#xd2;" horiz-adv-x="1527" d="M66 676q0 142 55.5 271t149 222t222.5 148t271 55t271 -55t222 -148t148 -222t55 -271q0 -190 -93 -351.5t-253.5 -255.5t-349.5 -94t-350 94t-254.5 255.5t-93.5 351.5zM362 674q0 -165 118.5 -283.5t283.5 -118.5t283 118.5t118 283.5q0 166 -117.5 284.5t-283.5 118.5 t-284 -118.5t-118 -284.5zM489 1810h283l113 -323h-264z" />
<glyph unicode="&#xd3;" horiz-adv-x="1527" d="M66 676q0 142 55.5 271t149 222t222.5 148t271 55t271 -55t222 -148t148 -222t55 -271q0 -190 -93 -351.5t-253.5 -255.5t-349.5 -94t-350 94t-254.5 255.5t-93.5 351.5zM362 674q0 -165 118.5 -283.5t283.5 -118.5t283 118.5t118 283.5q0 166 -117.5 284.5t-283.5 118.5 t-284 -118.5t-118 -284.5zM629 1487l112 323h283l-131 -323h-264z" />
<glyph unicode="&#xd4;" horiz-adv-x="1527" d="M66 676q0 142 55.5 271t149 222t222.5 148t271 55t271 -55t222 -148t148 -222t55 -271q0 -190 -93 -351.5t-253.5 -255.5t-349.5 -94t-350 94t-254.5 255.5t-93.5 351.5zM362 674q0 -165 118.5 -283.5t283.5 -118.5t283 118.5t118 283.5q0 166 -117.5 284.5t-283.5 118.5 t-284 -118.5t-118 -284.5zM381 1479l227 342h312l227 -342h-250l-133 188l-133 -188h-250z" />
<glyph unicode="&#xd5;" horiz-adv-x="1527" d="M66 676q0 142 55.5 271t149 222t222.5 148t271 55t271 -55t222 -148t148 -222t55 -271q0 -190 -93 -351.5t-253.5 -255.5t-349.5 -94t-350 94t-254.5 255.5t-93.5 351.5zM362 674q0 -165 118.5 -283.5t283.5 -118.5t283 118.5t118 283.5q0 166 -117.5 284.5t-283.5 118.5 t-284 -118.5t-118 -284.5zM362 1483q15 317 265 317q53 0 96.5 -19t67 -41.5t51.5 -41.5t53 -19q36 0 55 29.5t27 89.5h186q-15 -317 -264 -317q-53 0 -97 19t-67 41.5t-51 41.5t-55 19q-36 0 -55 -29.5t-27 -89.5h-185z" />
<glyph unicode="&#xd6;" horiz-adv-x="1527" d="M66 676q0 142 55.5 271t149 222t222.5 148t271 55t271 -55t222 -148t148 -222t55 -271q0 -190 -93 -351.5t-253.5 -255.5t-349.5 -94t-350 94t-254.5 255.5t-93.5 351.5zM362 674q0 -165 118.5 -283.5t283.5 -118.5t283 118.5t118 283.5q0 166 -117.5 284.5t-283.5 118.5 t-284 -118.5t-118 -284.5zM381 1636q0 68 47.5 116t114.5 48t115.5 -48t48.5 -116q0 -66 -48.5 -113.5t-115.5 -47.5t-114.5 47.5t-47.5 113.5zM819 1636q0 68 48.5 116t115.5 48t115.5 -48t48.5 -116q0 -66 -48.5 -113.5t-115.5 -47.5t-115.5 47.5t-48.5 113.5z" />
<glyph unicode="&#xd7;" d="M111 342l174 -174l323 324l324 -324l174 174l-324 324l324 323l-174 174l-324 -323l-323 323l-174 -174l497 -497l174 174l-174 174z" />
<glyph unicode="&#xd8;" horiz-adv-x="1564" d="M66 676q0 142 55.5 271t149 222t222.5 148t271 55q204 0 369 -106l94 131h170l-156 -215q103 -97 161 -227.5t58 -278.5q0 -190 -93 -351.5t-253.5 -255.5t-349.5 -94q-179 0 -342 91l-88 -125h-170l145 202q-114 98 -178.5 237t-64.5 296zM362 674q0 -173 132 -295 l458 651q-86 47 -188 47q-166 0 -284 -118.5t-118 -284.5zM612 303q73 -31 152 -31q165 0 283 118.5t118 283.5q0 151 -102 268z" />
<glyph unicode="&#xd9;" horiz-adv-x="1419" d="M119 543v809h321v-807q0 -156 67 -232.5t204 -76.5t203.5 76t66.5 233v807h322v-809q0 -280 -149.5 -421.5t-442.5 -141.5t-442.5 141.5t-149.5 421.5zM424 1810h283l112 -323h-264z" />
<glyph unicode="&#xda;" horiz-adv-x="1419" d="M119 543v809h321v-807q0 -156 67 -232.5t204 -76.5t203.5 76t66.5 233v807h322v-809q0 -280 -149.5 -421.5t-442.5 -141.5t-442.5 141.5t-149.5 421.5zM575 1487l113 323h283l-131 -323h-265z" />
<glyph unicode="&#xdb;" horiz-adv-x="1419" d="M119 543v809h321v-807q0 -156 67 -232.5t204 -76.5t203.5 76t66.5 233v807h322v-809q0 -280 -149.5 -421.5t-442.5 -141.5t-442.5 141.5t-149.5 421.5zM328 1479l227 342h311l228 -342h-250l-133 188l-133 -188h-250z" />
<glyph unicode="&#xdc;" horiz-adv-x="1419" d="M119 543v809h321v-807q0 -156 67 -232.5t204 -76.5t203.5 76t66.5 233v807h322v-809q0 -280 -149.5 -421.5t-442.5 -141.5t-442.5 141.5t-149.5 421.5zM328 1636q0 68 47 116t114 48t115.5 -48t48.5 -116q0 -66 -48.5 -113.5t-115.5 -47.5t-114 47.5t-47 113.5zM766 1636 q0 68 48 116t116 48t116 -48t48 -116q0 -66 -48.5 -113.5t-115.5 -47.5t-115.5 47.5t-48.5 113.5z" />
<glyph unicode="&#xdd;" horiz-adv-x="1296" d="M10 1352h334l203 -385l102 -205l103 205l202 385h332l-477 -852v-500h-322v500zM512 1487l113 323h282l-131 -323h-264z" />
<glyph unicode="&#xde;" horiz-adv-x="1331" d="M152 0v1352h321v-211h254q257 0 393 -115.5t135 -335.5q1 -219 -135 -333.5t-393 -114.5h-254v-242h-321zM473 485h223q236 0 236 205t-236 205h-223v-410z" />
<glyph unicode="&#xdf;" horiz-adv-x="1296" d="M125 0v956q0 122 30 215t95.5 162.5t175.5 105.5t262 36q125 0 223 -32t158 -87t90.5 -125t30.5 -150q0 -60 -21.5 -116.5t-61.5 -103t-105.5 -75t-145.5 -28.5v-4q177 0 275 -107t98 -266q0 -79 -28 -150t-82 -128t-142.5 -90t-200.5 -33q-158 0 -246 67l54 215 q52 -49 143 -49q92 0 144.5 58t52.5 153q0 99 -62.5 151t-181.5 52h-96l28 233h68q94 0 147.5 53.5t53.5 141.5q0 91 -52.5 137.5t-148.5 46.5q-132 0 -185 -73.5t-53 -239.5v-926h-317z" />
<glyph unicode="&#xe0;" horiz-adv-x="1177" d="M88 240q0 116 77.5 193t237.5 118q67 20 353 53v53q0 75 -48 119.5t-128 44.5q-182 0 -222 -159l-256 73q28 146 153.5 227.5t336.5 81.5q230 0 354.5 -96.5t124.5 -288.5v-395v-272l-283 -2v137q-53 -73 -146.5 -113.5t-211.5 -40.5q-162 0 -252 70t-90 197zM305 1516 h275l168 -353h-269zM391 285q0 -49 40 -77t101 -28q85 0 154.5 45.5t69.5 116.5v111q-150 -12 -248 -41q-56 -17 -86.5 -51t-30.5 -76z" />
<glyph unicode="&#xe1;" horiz-adv-x="1177" d="M88 240q0 116 77.5 193t237.5 118q67 20 353 53v53q0 75 -48 119.5t-128 44.5q-182 0 -222 -159l-256 73q28 146 153.5 227.5t336.5 81.5q230 0 354.5 -96.5t124.5 -288.5v-395v-272l-283 -2v137q-53 -73 -146.5 -113.5t-211.5 -40.5q-162 0 -252 70t-90 197zM391 285 q0 -49 40 -77t101 -28q85 0 154.5 45.5t69.5 116.5v111q-150 -12 -248 -41q-56 -17 -86.5 -51t-30.5 -76zM442 1163l168 353h275l-174 -353h-269z" />
<glyph unicode="&#xe2;" horiz-adv-x="1177" d="M88 240q0 116 77.5 193t237.5 118q67 20 353 53v53q0 75 -48 119.5t-128 44.5q-182 0 -222 -159l-256 73q28 146 153.5 227.5t336.5 81.5q230 0 354.5 -96.5t124.5 -288.5v-395v-272l-283 -2v137q-53 -73 -146.5 -113.5t-211.5 -40.5q-162 0 -252 70t-90 197zM225 1151 l224 352h313l223 -352h-248l-133 209l-131 -209h-248zM391 285q0 -49 40 -77t101 -28q85 0 154.5 45.5t69.5 116.5v111q-150 -12 -248 -41q-56 -17 -86.5 -51t-30.5 -76z" />
<glyph unicode="&#xe3;" horiz-adv-x="1177" d="M88 240q0 116 77.5 193t237.5 118q67 20 353 53v53q0 75 -48 119.5t-128 44.5q-182 0 -222 -159l-256 73q28 146 153.5 227.5t336.5 81.5q230 0 354.5 -96.5t124.5 -288.5v-395v-272l-283 -2v137q-53 -73 -146.5 -113.5t-211.5 -40.5q-162 0 -252 70t-90 197zM205 1155 q15 318 264 318q53 0 96.5 -19t67 -41.5t51.5 -41.5t53 -19q36 0 55 29t27 89h187q-15 -317 -265 -317q-53 0 -97 19t-67 41.5t-51 41.5t-55 19q-36 0 -55 -29.5t-27 -89.5h-184zM391 285q0 -49 40 -77t101 -28q85 0 154.5 45.5t69.5 116.5v111q-150 -12 -248 -41 q-56 -17 -86.5 -51t-30.5 -76z" />
<glyph unicode="&#xe4;" horiz-adv-x="1177" d="M88 240q0 116 77.5 193t237.5 118q67 20 353 53v53q0 75 -48 119.5t-128 44.5q-182 0 -222 -159l-256 73q28 146 153.5 227.5t336.5 81.5q230 0 354.5 -96.5t124.5 -288.5v-395v-272l-283 -2v137q-53 -73 -146.5 -113.5t-211.5 -40.5q-162 0 -252 70t-90 197zM223 1309 q0 68 47.5 116t114.5 48t115.5 -48.5t48.5 -115.5q0 -66 -48.5 -114t-115.5 -48t-114.5 48t-47.5 114zM391 285q0 -49 40 -77t101 -28q85 0 154.5 45.5t69.5 116.5v111q-150 -12 -248 -41q-56 -17 -86.5 -51t-30.5 -76zM662 1309q0 68 48 116t115 48t115.5 -48.5 t48.5 -115.5q0 -66 -48.5 -114t-115.5 -48t-115 48t-48 114z" />
<glyph unicode="&#xe5;" horiz-adv-x="1177" d="M88 240q0 116 77.5 193t237.5 118q67 20 353 53v53q0 75 -48 119.5t-128 44.5q-182 0 -222 -159l-256 73q28 146 153.5 227.5t336.5 81.5q230 0 354.5 -96.5t124.5 -288.5v-395v-272l-283 -2v137q-53 -73 -146.5 -113.5t-211.5 -40.5q-162 0 -252 70t-90 197zM356 1384 q0 103 73 175.5t177 72.5q101 0 173.5 -72.5t72.5 -175.5q0 -102 -72 -174.5t-174 -72.5q-104 0 -177 72t-73 175zM391 285q0 -49 40 -77t101 -28q85 0 154.5 45.5t69.5 116.5v111q-150 -12 -248 -41q-56 -17 -86.5 -51t-30.5 -76zM510 1384q0 -40 28 -68t68 -28 q39 0 68 28.5t28 67.5q0 40 -29 68.5t-67 28.5q-40 0 -68 -28.5t-28 -68.5z" />
<glyph unicode="&#xe6;" horiz-adv-x="1802" d="M74 238q0 127 92.5 202.5t288.5 112.5l264 53v51q0 78 -44 121t-128 43q-79 0 -129 -38t-74 -121l-254 73q29 145 146.5 227t316.5 82q241 0 350 -155q121 155 334 155q232 0 356.5 -134.5t124.5 -354.5q0 -71 -8 -129h-678q14 -110 73 -163.5t150 -53.5q80 0 123.5 29.5 t63.5 89.5l256 -88q-46 -127 -161 -193.5t-290 -66.5q-267 0 -381 194q-111 -194 -458 -194q-161 0 -247.5 70t-86.5 188zM391 276q0 -98 119 -98q86 0 147.5 50.5t61.5 140.5v75l-164 -36q-89 -23 -126.5 -51.5t-37.5 -80.5zM1032 596h395q-9 109 -53 165t-133 56 q-182 0 -209 -221z" />
<glyph unicode="&#xe7;" horiz-adv-x="1128" d="M68 508q0 149 71.5 273t195.5 195t271 71q156 0 280 -79t191 -216l-231 -119q-34 68 -99.5 108.5t-144.5 40.5q-109 0 -185.5 -80t-76.5 -194t76.5 -192t185.5 -78q77 0 140 36t98 99l235 -115q-47 -97 -127 -163.5t-182 -96.5q117 -79 117 -201q0 -113 -77.5 -175 t-205.5 -62q-163 0 -250 80l76 153q59 -59 147 -59q51 0 82 27.5t31 76.5q0 45 -29 78t-102 61q-208 19 -347.5 168.5t-139.5 362.5z" />
<glyph unicode="&#xe8;" horiz-adv-x="1189" d="M68 512q0 111 36 207.5t103 169t170.5 114t230.5 41.5q242 0 379 -138t137 -384q0 -58 -8 -112h-745q23 -100 89.5 -150.5t160.5 -50.5q83 0 144 31.5t81 87.5l258 -88q-45 -126 -173 -194.5t-306 -68.5q-266 0 -411.5 145t-145.5 390zM303 1516h275l167 -353h-268z M369 600h471q-18 104 -81 160.5t-153 56.5q-96 0 -157.5 -54.5t-79.5 -162.5z" />
<glyph unicode="&#xe9;" horiz-adv-x="1189" d="M68 512q0 111 36 207.5t103 169t170.5 114t230.5 41.5q242 0 379 -138t137 -384q0 -58 -8 -112h-745q23 -100 89.5 -150.5t160.5 -50.5q83 0 144 31.5t81 87.5l258 -88q-45 -126 -173 -194.5t-306 -68.5q-266 0 -411.5 145t-145.5 390zM369 600h471q-18 104 -81 160.5 t-153 56.5q-96 0 -157.5 -54.5t-79.5 -162.5zM440 1163l168 353h275l-174 -353h-269z" />
<glyph unicode="&#xea;" horiz-adv-x="1189" d="M68 512q0 111 36 207.5t103 169t170.5 114t230.5 41.5q242 0 379 -138t137 -384q0 -58 -8 -112h-745q23 -100 89.5 -150.5t160.5 -50.5q83 0 144 31.5t81 87.5l258 -88q-45 -126 -173 -194.5t-306 -68.5q-266 0 -411.5 145t-145.5 390zM223 1151l223 352h314l223 -352 h-248l-133 209l-131 -209h-248zM369 600h471q-18 104 -81 160.5t-153 56.5q-96 0 -157.5 -54.5t-79.5 -162.5z" />
<glyph unicode="&#xeb;" horiz-adv-x="1189" d="M68 512q0 111 36 207.5t103 169t170.5 114t230.5 41.5q242 0 379 -138t137 -384q0 -58 -8 -112h-745q23 -100 89.5 -150.5t160.5 -50.5q83 0 144 31.5t81 87.5l258 -88q-45 -126 -173 -194.5t-306 -68.5q-266 0 -411.5 145t-145.5 390zM221 1309q0 68 47.5 116t114.5 48 t115.5 -48.5t48.5 -115.5q0 -66 -48.5 -114t-115.5 -48t-114.5 48t-47.5 114zM369 600h471q-18 104 -81 160.5t-153 56.5q-96 0 -157.5 -54.5t-79.5 -162.5zM659 1309q0 67 48.5 115.5t115.5 48.5t115.5 -48.5t48.5 -115.5q0 -66 -48.5 -114t-115.5 -48t-115.5 48t-48.5 114 z" />
<glyph unicode="&#xec;" horiz-adv-x="567" d="M-16 1516h274l168 -353h-268zM125 0v1024h317v-1024h-317z" />
<glyph unicode="&#xed;" horiz-adv-x="567" d="M125 0v1024h317v-1024h-317zM131 1163l168 353h274l-174 -353h-268z" />
<glyph unicode="&#xee;" horiz-adv-x="567" d="M-96 1151l223 352h313l224 -352h-248l-133 209l-131 -209h-248zM125 0v1024h317v-1024h-317z" />
<glyph unicode="&#xef;" horiz-adv-x="567" d="M-66 1298q0 75 41.5 115.5t116.5 40.5q76 0 117 -40.5t41 -115.5q0 -74 -41 -113.5t-117 -39.5q-75 0 -116.5 40t-41.5 113zM125 0v1024h317v-1024h-317zM317 1298q0 75 41.5 115.5t116.5 40.5t116.5 -40.5t41.5 -115.5q0 -73 -41.5 -113t-116.5 -40t-116.5 40t-41.5 113 z" />
<glyph unicode="&#xf0;" horiz-adv-x="1222" d="M82 496q0 240 137 378t359 138q210 0 301 -144q-43 188 -156 324l-342 -76l-23 111l287 47q-104 95 -285 209h304q114 -61 208 -160l242 57l31 -112l-203 -27q193 -254 193 -625q0 -321 -131 -478.5t-412 -157.5q-238 0 -374 136.5t-136 379.5zM403 496q0 -141 53.5 -213 t155.5 -72q108 0 166 76t58 209q0 301 -218 301q-215 0 -215 -301z" />
<glyph unicode="&#xf1;" horiz-adv-x="1222" d="M109 0v1024h282l10 -188q50 104 140 156t211 52q163 0 261.5 -94.5t98.5 -271.5v-678h-317v588q0 114 -42.5 162.5t-119.5 48.5q-90 0 -148.5 -63.5t-58.5 -194.5v-541h-317zM215 1155q15 318 264 318q53 0 96.5 -19t67.5 -41.5t52 -41.5t53 -19q36 0 54.5 29t26.5 89 h187q-15 -317 -264 -317q-53 0 -97 19t-67.5 41.5t-51.5 41.5t-55 19q-36 0 -55 -29.5t-27 -89.5h-184z" />
<glyph unicode="&#xf2;" horiz-adv-x="1183" d="M49 508q0 149 73 273t197.5 195t272.5 71t272.5 -71t197.5 -195t73 -273t-73 -272t-197.5 -192t-272.5 -69t-272.5 69t-197.5 192t-73 272zM297 1516h274l168 -353h-268zM324 508q0 -114 77.5 -191t190.5 -77t190.5 77t77.5 191t-78 195t-190 81t-190 -81t-78 -195z" />
<glyph unicode="&#xf3;" horiz-adv-x="1183" d="M49 508q0 149 73 273t197.5 195t272.5 71t272.5 -71t197.5 -195t73 -273t-73 -272t-197.5 -192t-272.5 -69t-272.5 69t-197.5 192t-73 272zM324 508q0 -114 77.5 -191t190.5 -77t190.5 77t77.5 191t-78 195t-190 81t-190 -81t-78 -195zM432 1163l168 353h274l-174 -353 h-268z" />
<glyph unicode="&#xf4;" horiz-adv-x="1183" d="M49 508q0 149 73 273t197.5 195t272.5 71t272.5 -71t197.5 -195t73 -273t-73 -272t-197.5 -192t-272.5 -69t-272.5 69t-197.5 192t-73 272zM217 1151l223 352h314l223 -352h-248l-133 209l-131 -209h-248zM324 508q0 -114 77.5 -191t190.5 -77t190.5 77t77.5 191t-78 195 t-190 81t-190 -81t-78 -195z" />
<glyph unicode="&#xf5;" horiz-adv-x="1183" d="M49 508q0 149 73 273t197.5 195t272.5 71t272.5 -71t197.5 -195t73 -273t-73 -272t-197.5 -192t-272.5 -69t-272.5 69t-197.5 192t-73 272zM195 1155q15 318 264 318q53 0 96.5 -19t67 -41.5t51.5 -41.5t53 -19q36 0 55 29t27 89h186q-15 -317 -264 -317q-53 0 -97 19 t-67 41.5t-51 41.5t-55 19q-36 0 -55 -29.5t-27 -89.5h-184zM324 508q0 -114 77.5 -191t190.5 -77t190.5 77t77.5 191t-78 195t-190 81t-190 -81t-78 -195z" />
<glyph unicode="&#xf6;" horiz-adv-x="1183" d="M49 508q0 149 73 273t197.5 195t272.5 71t272.5 -71t197.5 -195t73 -273t-73 -272t-197.5 -192t-272.5 -69t-272.5 69t-197.5 192t-73 272zM213 1309q0 68 47.5 116t114.5 48t115.5 -48.5t48.5 -115.5q0 -66 -48.5 -114t-115.5 -48t-114.5 48t-47.5 114zM324 508 q0 -114 77.5 -191t190.5 -77t190.5 77t77.5 191t-78 195t-190 81t-190 -81t-78 -195zM651 1309q0 67 48.5 115.5t115.5 48.5t115.5 -48.5t48.5 -115.5q0 -66 -48.5 -114t-115.5 -48t-115.5 48t-48.5 114z" />
<glyph unicode="&#xf7;" d="M96 547v233h1026v-233h-1026zM440 233q0 69 49.5 117.5t120.5 48.5q69 0 119.5 -48.5t50.5 -117.5q0 -71 -50 -121.5t-120 -50.5q-71 0 -120.5 50t-49.5 122zM440 1100q0 70 49.5 119t120.5 49q70 0 120 -49t50 -119t-50.5 -121t-119.5 -51q-70 0 -120 50.5t-50 121.5z " />
<glyph unicode="&#xf8;" d="M74 512q0 252 141 392t393 140q183 0 312 -75l77 100h138l-131 -168q137 -137 137 -389q0 -251 -140.5 -391.5t-392.5 -140.5q-174 0 -293 67l-79 -106h-138l127 170q-151 139 -151 401zM393 512q0 -101 37 -168h2l51 76l260 346q-46 49 -135 49q-108 0 -161.5 -74 t-53.5 -229zM485 246q46 -37 123 -37q215 0 215 303q0 86 -30 145h-2l-50 -69z" />
<glyph unicode="&#xf9;" horiz-adv-x="1210" d="M98 371v653h318v-600q0 -109 39 -154t118 -45q94 0 152.5 64t58.5 190v545h318v-1024h-291l-4 127q-41 -82 -120.5 -118t-213.5 -36q-175 0 -275 95.5t-100 302.5zM301 1516h274l168 -353h-268z" />
<glyph unicode="&#xfa;" horiz-adv-x="1210" d="M98 371v653h318v-600q0 -109 39 -154t118 -45q94 0 152.5 64t58.5 190v545h318v-1024h-291l-4 127q-41 -82 -120.5 -118t-213.5 -36q-175 0 -275 95.5t-100 302.5zM438 1163l168 353h275l-174 -353h-269z" />
<glyph unicode="&#xfb;" horiz-adv-x="1210" d="M98 371v653h318v-600q0 -109 39 -154t118 -45q94 0 152.5 64t58.5 190v545h318v-1024h-291l-4 127q-41 -82 -120.5 -118t-213.5 -36q-175 0 -275 95.5t-100 302.5zM221 1151l223 352h314l223 -352h-248l-133 209l-131 -209h-248z" />
<glyph unicode="&#xfc;" horiz-adv-x="1210" d="M98 371v653h318v-600q0 -109 39 -154t118 -45q94 0 152.5 64t58.5 190v545h318v-1024h-291l-4 127q-41 -82 -120.5 -118t-213.5 -36q-175 0 -275 95.5t-100 302.5zM219 1309q0 68 47.5 116t114.5 48t115.5 -48.5t48.5 -115.5q0 -66 -48.5 -114t-115.5 -48t-114.5 48 t-47.5 114zM657 1309q0 67 48.5 115.5t115.5 48.5t115.5 -48.5t48.5 -115.5q0 -66 -48.5 -114t-115.5 -48t-115.5 48t-48.5 114z" />
<glyph unicode="&#xfd;" horiz-adv-x="1191" d="M33 -365l71 220q60 -60 175 -60q63 0 101 24t62 87l31 76l-117 272l-309 770h350l174 -543l52 -182l59 195l172 530h317l-391 -1053q-79 -227 -186.5 -319t-290.5 -92q-170 0 -270 75zM471 1163l168 353h274l-174 -353h-268z" />
<glyph unicode="&#xfe;" horiz-adv-x="1267" d="M125 -430v1894h317v-614q45 90 127.5 142t196.5 52q188 0 305 -134.5t117 -389.5q0 -115 -24.5 -207.5t-65 -153.5t-96.5 -102t-117.5 -59t-128.5 -18q-108 0 -188.5 46t-125.5 128v-584h-317zM442 502q0 -134 56 -209.5t155 -75.5q215 0 215 295q0 297 -215 297 q-98 0 -154.5 -74.5t-56.5 -212.5v-20z" />
<glyph unicode="&#xff;" horiz-adv-x="1191" d="M33 -365l71 220q60 -60 175 -60q63 0 101 24t62 87l31 76l-117 272l-309 770h350l174 -543l52 -182l59 195l172 530h317l-391 -1053q-79 -227 -186.5 -319t-290.5 -92q-170 0 -270 75zM252 1309q0 68 47.5 116t114.5 48q68 0 116 -48.5t48 -115.5q0 -66 -48.5 -114 t-115.5 -48t-114.5 48t-47.5 114zM690 1309q0 67 48 115.5t116 48.5t116 -48.5t48 -115.5q0 -66 -48.5 -114t-115.5 -48t-115.5 48t-48.5 114z" />
<glyph unicode="&#x152;" horiz-adv-x="2138" d="M90 676q0 326 169.5 511t465.5 185q262 0 420 -182v162h905v-252h-684v-301h535v-240h-535v-307h713v-252h-934v166q-159 -186 -424 -186q-291 0 -461 186t-170 510zM414 676q0 -216 82.5 -328t242.5 -112q149 0 231.5 113.5t82.5 326.5q0 214 -82.5 327t-231.5 113 q-160 0 -242.5 -111.5t-82.5 -328.5z" />
<glyph unicode="&#x153;" horiz-adv-x="1945" d="M74 512q0 251 139 391.5t383 140.5q273 0 399 -186q120 186 377 186q239 0 370.5 -135t131.5 -354q0 -71 -10 -119h-711q26 -227 238 -227q165 0 204 119l258 -86q-45 -128 -164.5 -195t-297.5 -67q-274 0 -396 188q-127 -188 -399 -188q-244 0 -383 141t-139 391z M397 512q0 -155 53 -228t160 -73q108 0 161.5 73t53.5 228t-53.5 229t-161.5 74q-107 0 -160 -74t-53 -229zM1155 596h418q-25 221 -201 221q-190 0 -217 -221z" />
<glyph unicode="&#x178;" horiz-adv-x="1296" d="M10 1352h334l203 -385l102 -205l103 205l202 385h332l-477 -852v-500h-322v500zM266 1636q0 68 47.5 116t114.5 48q68 0 116 -48t48 -116q0 -66 -48.5 -113.5t-115.5 -47.5t-114.5 47.5t-47.5 113.5zM705 1636q0 68 48 116t115 48q68 0 116 -48t48 -116 q0 -66 -48.5 -113.5t-115.5 -47.5t-115 47.5t-48 113.5z" />
<glyph unicode="&#x2c6;" horiz-adv-x="1003" d="M123 1151l223 352h313l224 -352h-248l-133 209l-131 -209h-248z" />
<glyph unicode="&#x2dc;" horiz-adv-x="1003" d="M102 1155q15 318 265 318q53 0 96.5 -19t67 -41.5t51.5 -41.5t53 -19q36 0 55 29t27 89h186q-15 -317 -264 -317q-53 0 -97 19t-67 41.5t-51 41.5t-55 19q-36 0 -55 -29.5t-27 -89.5h-185z" />
<glyph unicode="&#x2000;" horiz-adv-x="910" />
<glyph unicode="&#x2001;" horiz-adv-x="1821" />
<glyph unicode="&#x2002;" horiz-adv-x="910" />
<glyph unicode="&#x2003;" horiz-adv-x="1821" />
<glyph unicode="&#x2004;" horiz-adv-x="607" />
<glyph unicode="&#x2005;" horiz-adv-x="455" />
<glyph unicode="&#x2006;" horiz-adv-x="303" />
<glyph unicode="&#x2007;" horiz-adv-x="303" />
<glyph unicode="&#x2008;" horiz-adv-x="227" />
<glyph unicode="&#x2009;" horiz-adv-x="364" />
<glyph unicode="&#x200a;" horiz-adv-x="101" />
<glyph unicode="&#x2010;" horiz-adv-x="1054" d="M160 414v264h737v-264h-737z" />
<glyph unicode="&#x2011;" horiz-adv-x="1054" d="M160 414v264h737v-264h-737z" />
<glyph unicode="&#x2012;" horiz-adv-x="1054" d="M160 414v264h737v-264h-737z" />
<glyph unicode="&#x2013;" horiz-adv-x="1386" d="M152 418v256h1085v-256h-1085z" />
<glyph unicode="&#x2014;" horiz-adv-x="2041" d="M152 418v256h1740v-256h-1740z" />
<glyph unicode="&#x2018;" horiz-adv-x="569" d="M98 948q-8 159 92.5 285.5t296.5 157.5l39 -164q-136 -38 -192 -109q58 -18 95.5 -66.5t37.5 -111.5q0 -75 -53.5 -127.5t-128.5 -52.5q-77 0 -129.5 54t-57.5 134z" />
<glyph unicode="&#x2019;" horiz-adv-x="569" d="M53 956q134 38 193 109q-59 15 -96 64.5t-37 113.5q0 75 53.5 127.5t128.5 52.5q77 0 129 -54t57 -134q8 -159 -92.5 -285t-296.5 -157z" />
<glyph unicode="&#x201a;" horiz-adv-x="565" d="M37 -127q136 38 192 109q-58 18 -95.5 66.5t-37.5 111.5q0 75 54 127.5t129 52.5q77 0 129 -54t57 -134q8 -159 -92.5 -285.5t-296.5 -157.5z" />
<glyph unicode="&#x201c;" horiz-adv-x="1050" d="M98 948q-8 159 92.5 285.5t296.5 157.5l39 -164q-136 -38 -192 -109q58 -18 95.5 -66.5t37.5 -111.5q0 -75 -53.5 -127.5t-128.5 -52.5q-77 0 -129.5 54t-57.5 134zM582 948q-8 159 92.5 285.5t296.5 157.5l39 -164q-136 -38 -195 -109q60 -18 97.5 -66.5t37.5 -111.5 q0 -75 -53.5 -127.5t-128.5 -52.5q-77 0 -129 54t-57 134z" />
<glyph unicode="&#x201d;" horiz-adv-x="1042" d="M53 956q134 38 193 109q-59 15 -96 64.5t-37 113.5q0 75 53.5 127.5t128.5 52.5q77 0 129 -54t57 -134q8 -159 -92.5 -285t-296.5 -157zM526 956q138 38 193 109q-58 15 -95.5 64.5t-37.5 113.5q0 75 53.5 127.5t128.5 52.5q77 0 129 -54t57 -134q8 -159 -92.5 -285 t-296.5 -157z" />
<glyph unicode="&#x201e;" horiz-adv-x="1038" d="M37 -127q136 38 192 109q-58 18 -95.5 66.5t-37.5 111.5q0 75 54 127.5t129 52.5q77 0 129 -54t57 -134q8 -159 -92.5 -285.5t-296.5 -157.5zM512 -127q134 38 193 109q-59 18 -96.5 66t-37.5 112q0 75 54 127.5t129 52.5q77 0 129 -54t57 -134q8 -159 -92.5 -285.5 t-296.5 -157.5z" />
<glyph unicode="&#x2022;" horiz-adv-x="860" d="M133 684q0 123 87 209t210 86t210 -86t87 -209q0 -124 -87 -210.5t-210 -86.5t-210 86.5t-87 210.5z" />
<glyph unicode="&#x2026;" horiz-adv-x="1839" d="M109 160q0 75 53.5 127.5t128.5 52.5t128.5 -52.5t53.5 -127.5q0 -76 -53.5 -130.5t-128.5 -54.5t-128.5 54.5t-53.5 130.5zM735 160q0 75 54 127.5t129 52.5t128.5 -52.5t53.5 -127.5q0 -76 -53.5 -130.5t-128.5 -54.5t-129 54.5t-54 130.5zM1362 160q0 75 53.5 127.5 t128.5 52.5t128.5 -52.5t53.5 -127.5q0 -76 -53.5 -130.5t-128.5 -54.5t-128.5 54.5t-53.5 130.5z" />
<glyph unicode="&#x202f;" horiz-adv-x="364" />
<glyph unicode="&#x2039;" horiz-adv-x="673" d="M68 543l256 401h282l-250 -401l250 -402h-282z" />
<glyph unicode="&#x203a;" horiz-adv-x="673" d="M68 141l249 402l-249 401h282l256 -401l-256 -402h-282z" />
<glyph unicode="&#x205f;" horiz-adv-x="455" />
<glyph unicode="&#x20ac;" horiz-adv-x="1417" d="M-137 446l65 156h129q-4 50 -4 76l2 43h-192l65 156h154q65 225 255 369.5t431 144.5q181 0 337 -85.5t253 -230.5l-256 -160q-58 80 -145.5 126t-188.5 46q-113 0 -208 -57t-150 -153h508l-52 -156h-506q-2 -14 -2 -45q0 -30 7 -74h473l-50 -156h-358 q56 -83 145.5 -131.5t192.5 -48.5q101 0 189.5 46.5t144.5 125.5l258 -157q-97 -148 -253 -234t-339 -86q-232 0 -417.5 135t-258.5 350h-229z" />
<glyph unicode="&#x2122;" horiz-adv-x="1679" d="M45 1208v144h612v-144h-208v-532h-195v532h-209zM752 676v676h274l107 -318l36 -131h5l36 131l109 318h268v-676h-192v276l12 203h-4l-37 -127l-119 -352h-153l-121 352l-37 127h-4l12 -203v-276h-192z" />
<glyph unicode="&#x25fc;" horiz-adv-x="1024" d="M0 0v1024h1024v-1024h-1024z" />
</font>
</defs>
</svg>
