<?xml version="1.0" standalone="no"?>
<!DOCTYPE svg PUBLIC "-//W3C//DTD SVG 1.1//EN" "http://www.w3.org/Graphics/SVG/1.1/DTD/svg11.dtd" >
<svg xmlns="http://www.w3.org/2000/svg" xmlns:xlink="http://www.w3.org/1999/xlink" version="1.1">
<metadata></metadata>
<defs>
<font id="human_sansblack" horiz-adv-x="1226" >
<font-face units-per-em="2048" ascent="1556" descent="-492" />
<missing-glyph horiz-adv-x="518" />
<glyph unicode="&#xfb01;" horiz-adv-x="1519" d="M31 723v270h155v107q0 100 34 175.5t95 120t137 66t166 21.5q151 0 236 -58v-270q-85 33 -137 33q-77 0 -121.5 -34.5t-44.5 -90.5v-70h305v-270h-281v-723h-389v723h-155zM999 1348q0 87 62 150t151 63q86 0 149.5 -63.5t63.5 -149.5q0 -87 -63 -150t-150 -63 q-89 0 -151 62.5t-62 150.5zM1020 0v1024h389v-1024h-389z" />
<glyph unicode="&#xfb02;" horiz-adv-x="1492" d="M31 723v270h155v107q0 100 34 175.5t95 120t137 66t166 21.5q151 0 236 -58v-270q-85 33 -137 33q-77 0 -121.5 -34.5t-44.5 -90.5v-70h305v-270h-281v-723h-389v723h-155zM1006 0v1450h387v-1450h-387z" />
<glyph horiz-adv-x="0" />
<glyph horiz-adv-x="682" />
<glyph unicode=" "  horiz-adv-x="518" />
<glyph unicode="&#x09;" horiz-adv-x="518" />
<glyph unicode="&#xa0;" horiz-adv-x="518" />
<glyph unicode="!" horiz-adv-x="620" d="M106 186q0 85 59.5 145t145.5 60q85 0 144 -60t59 -145q0 -86 -59 -146t-144 -60q-86 0 -145.5 60t-59.5 146zM106 1352h406l-41 -869h-326z" />
<glyph unicode="&#x22;" horiz-adv-x="925" d="M115 803v579h317l-63 -579h-254zM532 803v579h318l-64 -579h-254z" />
<glyph unicode="#" horiz-adv-x="1421" d="M51 315v228h242l43 268h-199v227h234l51 314h258l-49 -314h248l51 314h258l-51 -314h233v-227h-268l-43 -268h225v-228h-262l-51 -315h-258l51 315h-248l-51 -315h-260l51 315h-205zM551 543h250l43 268h-250z" />
<glyph unicode="$" horiz-adv-x="1275" d="M96 338q0 69 10 123h310q-4 -33 -4 -76q0 -47 41.5 -87.5t107.5 -55.5v288q-243 59 -349 157t-106 269q0 166 123 283.5t332 140.5v125h170v-125q200 -23 311 -152t111 -335h-317q2 79 -22 126.5t-83 65.5v-286l12 -2q232 -51 343.5 -152.5t111.5 -263.5 q0 -194 -124.5 -297t-342.5 -123v-119h-170v117q-203 15 -334 123.5t-131 255.5zM457 969q0 -50 24 -78t80 -49v248q-104 -24 -104 -121zM731 244q133 25 133 121q0 43 -32 71.5t-101 50.5v-243z" />
<glyph unicode="%" horiz-adv-x="1959" d="M74 985q0 161 114 275t275 114t275 -114t114 -275q0 -160 -114 -273.5t-275 -113.5t-275 113.5t-114 273.5zM330 985q0 -55 39 -94t94 -39q54 0 93.5 39t39.5 94t-39.5 94t-93.5 39q-55 0 -94 -39t-39 -94zM356 0l961 1354h291l-961 -1354h-291zM1112 367q0 161 113 274 t276 113q160 0 273.5 -113t113.5 -274t-113.5 -275.5t-273.5 -114.5q-162 0 -275.5 114t-113.5 276zM1368 367q0 -56 39 -95t94 -39q54 0 93.5 39.5t39.5 94.5t-39.5 94t-93.5 39q-55 0 -94 -39t-39 -94z" />
<glyph unicode="&#x26;" horiz-adv-x="1433" d="M88 469q0 118 53 221t144 172q-47 84 -47 230q0 149 107.5 250.5t275.5 101.5q129 0 225.5 -56.5t143 -142.5t46.5 -186h-305q0 35 -23 57.5t-57 22.5t-56 -22.5t-22 -57.5q0 -60 52 -137q78 -109 116 -156v104h502v-313h-174v-88q0 -41 -6 -82l51 -57h217v-330h-346v2 l-4 -2q-10 12 -39.5 43.5t-46.5 50.5q-136 -114 -317 -114q-132 0 -245 65.5t-179 178t-66 245.5zM416 469q0 -62 50.5 -112t111.5 -50q55 0 100 39q-119 143 -205 252q-57 -47 -57 -129z" />
<glyph unicode="'" horiz-adv-x="507" d="M115 803v579h317l-63 -579h-254z" />
<glyph unicode="(" horiz-adv-x="802" d="M133 623q0 289 121 544t334 437l184 -226q-161 -139 -253.5 -336t-92.5 -419t90.5 -418.5t249.5 -335.5l-191 -223q-207 183 -324.5 436.5t-117.5 540.5z" />
<glyph unicode=")" horiz-adv-x="802" d="M31 1378l184 226q213 -182 334 -437t121 -544q0 -287 -118 -540.5t-325 -436.5l-190 223q159 139 249.5 335.5t90.5 418.5t-92.5 419t-253.5 336z" />
<glyph unicode="*" horiz-adv-x="1200" d="M68 1008l84 260l321 -117l-10 344h274l-10 -342l324 115l84 -260l-332 -97l211 -270l-221 -160l-195 283l-192 -283l-220 160l207 272z" />
<glyph unicode="+" d="M94 535v270h369v414h303v-414h367v-270h-367v-416h-303v416h-369z" />
<glyph unicode="," horiz-adv-x="593" d="M35 -111q127 32 190 99q-61 22 -98 73.5t-37 118.5q0 85 59.5 144t145.5 59q84 0 143 -62t64 -149q3 -78 -20 -153t-71.5 -142t-135.5 -115t-201 -63z" />
<glyph unicode="-" horiz-adv-x="1079" d="M156 397v308h766v-308h-766z" />
<glyph unicode="." horiz-adv-x="593" d="M90 180q0 85 59.5 144t145.5 59q85 0 144 -59t59 -144q0 -86 -59 -145.5t-144 -59.5q-86 0 -145.5 59.5t-59.5 145.5z" />
<glyph unicode="/" horiz-adv-x="991" d="M12 -143l604 1593h363l-604 -1593h-363z" />
<glyph unicode="0" horiz-adv-x="1257" d="M84 676q0 355 126.5 525.5t418.5 170.5t418.5 -170.5t126.5 -525.5t-126.5 -525.5t-418.5 -170.5t-418.5 170.5t-126.5 525.5zM426 676q0 -216 46.5 -304.5t156.5 -88.5q109 0 154.5 88t45.5 305t-45.5 305t-154.5 88q-110 0 -156.5 -88.5t-46.5 -304.5z" />
<glyph unicode="1" horiz-adv-x="886" d="M45 1137l393 215h316v-1352h-379v954l-289 -135z" />
<glyph unicode="2" horiz-adv-x="1179" d="M88 899q3 226 148.5 349.5t377.5 123.5q104 0 187 -26.5t135.5 -69t87.5 -100t49 -116.5t14 -122q0 -56 -12.5 -110t-31.5 -99.5t-53 -96t-64.5 -88t-80 -87t-86 -82.5t-93.5 -84h20q172 4 203 4h205v-295h-961v203q81 86 187 189t168 163.5t122.5 129t87.5 126t27 113.5 q0 63 -34.5 104t-102.5 41q-80 0 -126 -63t-50 -191z" />
<glyph unicode="3" horiz-adv-x="1183" d="M88 317l305 113q25 -81 66.5 -117.5t115.5 -36.5q79 0 123.5 38t44.5 110q-1 66 -44 96.5t-132 30.5h-180v240h160q86 0 126 34t42 105q2 68 -36 106.5t-108 38.5q-140 0 -163 -145l-314 78q58 364 498 364q240 0 363.5 -100.5t123.5 -282.5q0 -79 -23 -141.5t-57 -96.5 t-68 -51.5t-61 -17.5v-8q25 0 54 -9t62 -31t59 -54t43.5 -84t17.5 -115q0 -187 -141.5 -294t-393.5 -107q-216 0 -332.5 83.5t-150.5 253.5z" />
<glyph unicode="4" horiz-adv-x="1107" d="M63 285v164l396 903h508v-801h73v-266h-73v-285h-314v285h-590zM426 551h227l2 323l4 205z" />
<glyph unicode="5" horiz-adv-x="1103" d="M90 676l96 676h750v-285h-487l-19 -127q62 10 113 10q211 0 357.5 -139t146.5 -346q0 -209 -147.5 -355.5t-356.5 -146.5q-148 0 -269.5 79.5t-181.5 209.5l279 123q25 -49 71.5 -79t100.5 -30q83 0 140.5 58.5t57.5 142.5q0 80 -57.5 137.5t-140.5 57.5 q-56 0 -103 -30.5t-71 -80.5z" />
<glyph unicode="6" horiz-adv-x="1120" d="M61 465q0 114 52 221l258 666h356l-149 -385q133 -4 245 -72t177 -182t65 -248q0 -209 -147.5 -355.5t-356.5 -146.5q-136 0 -251 67t-182 182.5t-67 252.5zM367 467q0 -83 57 -142t137 -59q83 0 141 59t58 142q0 80 -58 137.5t-141 57.5q-79 0 -136.5 -57.5 t-57.5 -137.5z" />
<glyph unicode="7" horiz-adv-x="1046" d="M47 1038v314h973l-504 -1352h-358l401 1038h-512z" />
<glyph unicode="8" horiz-adv-x="1120" d="M70 348q0 121 64.5 208.5t178.5 129.5v2q-94 40 -149 124.5t-55 188.5q0 69 25.5 132t77 117t141.5 86t206 32q117 0 207.5 -32t142.5 -86t77.5 -118t25.5 -135q0 -101 -50.5 -185.5t-152.5 -123.5v-2q114 -43 178 -130.5t64 -207.5q0 -77 -28 -142t-85 -116.5 t-153.5 -80.5t-225.5 -29q-127 0 -223.5 29t-153 80.5t-84.5 116.5t-28 142zM387 371q0 -70 47.5 -114t124.5 -44q79 0 126.5 44t47.5 114q0 72 -48 116.5t-126 44.5q-77 0 -124.5 -44.5t-47.5 -116.5zM410 981q0 -66 42 -108t107 -42q66 0 109 42t43 108t-42 105.5 t-110 39.5q-66 0 -107.5 -39.5t-41.5 -105.5z" />
<glyph unicode="9" horiz-adv-x="1110" d="M53 887q0 209 147.5 355.5t356.5 146.5q135 0 250 -66.5t182.5 -182.5t67.5 -253q0 -115 -49 -215l-269 -672h-354l154 387q-203 8 -344.5 153t-141.5 347zM358 887q0 -82 57.5 -139.5t141.5 -57.5q80 0 137.5 58t57.5 139q0 82 -57.5 140t-137.5 58q-84 0 -141.5 -58 t-57.5 -140z" />
<glyph unicode=":" horiz-adv-x="610" d="M98 180q0 85 59.5 144t145.5 59q85 0 144 -59t59 -144q0 -86 -59 -145.5t-144 -59.5q-86 0 -145.5 59.5t-59.5 145.5zM98 850q0 85 59.5 144t145.5 59q85 0 144 -59t59 -144q0 -86 -59 -145.5t-144 -59.5q-86 0 -145.5 59.5t-59.5 145.5z" />
<glyph unicode=";" horiz-adv-x="610" d="M45 -111q124 32 188 99q-61 22 -97 73.5t-36 118.5q0 85 59.5 144t145.5 59q84 0 143 -62t64 -149q3 -78 -20 -153t-71.5 -142t-135.5 -115t-201 -63zM104 846q0 86 59 145.5t144 59.5q86 0 145.5 -59.5t59.5 -145.5q0 -85 -59.5 -144t-145.5 -59q-85 0 -144 59t-59 144z " />
<glyph unicode="&#x3c;" d="M119 442v326l1011 444v-350l-655 -256l655 -256v-350z" />
<glyph unicode="=" d="M127 299v260h973v-260h-973zM127 750v258h973v-258h-973z" />
<glyph unicode="&#x3e;" d="M96 0v350l656 256l-656 256v350l1012 -444v-326z" />
<glyph unicode="?" horiz-adv-x="1212" d="M174 1159q56 120 171.5 193t254.5 73q195 0 332 -134t137 -326q0 -152 -92 -273t-236 -166v-110h-292v352l145 18q82 11 132 59t50 120t-52.5 124t-123.5 52q-53 0 -96 -30t-64 -77zM401 168q0 78 58 132t141 54q82 0 138.5 -54t56.5 -132q0 -80 -56.5 -135.5 t-138.5 -55.5q-83 0 -141 55.5t-58 135.5z" />
<glyph unicode="@" horiz-adv-x="1908" d="M90 485q0 185 65 346t180.5 276t281 181t358.5 66q134 0 255.5 -31t228 -97t185 -162t123.5 -234t45 -304q0 -247 -98.5 -387.5t-288.5 -140.5q-124 0 -186 74q-64 -61 -149 -94t-179 -33q-98 0 -186.5 36.5t-155 102t-106 163t-39.5 212.5q0 118 40.5 217t108.5 163.5 t155.5 100t182.5 35.5q160 0 291 -101v72h285v-686q0 -94 47 -94q46 0 82.5 110t36.5 269q0 163 -51 289.5t-143.5 205.5t-215 119.5t-270.5 40.5q-223 0 -388 -89t-251 -250.5t-86 -375.5q0 -327 193 -526t511 -199q189 0 351 78l53 -143q-184 -88 -393 -88 q-249 0 -449 114t-312 314.5t-112 449.5zM772 461q0 -92 63 -153.5t150 -61.5q85 0 146.5 51.5t70.5 134.5v60q-10 84 -72.5 135t-144.5 51q-87 0 -150 -62t-63 -155z" />
<glyph unicode="A" horiz-adv-x="1384" d="M8 0l447 1352h473l448 -1352h-389l-57 203h-484l-59 -203h-379zM535 508h309l-94 330l-58 219h-6l-55 -217z" />
<glyph unicode="B" horiz-adv-x="1402" d="M129 0v1352h696q247 0 370.5 -93t123.5 -264q0 -130 -73.5 -210.5t-211.5 -102.5v-2q161 -21 240.5 -106t79.5 -220q0 -170 -124 -262t-368 -92h-733zM508 268h272q170 0 170 133q0 134 -170 134h-272v-267zM508 809h237q170 0 170 131t-170 131h-237v-262z" />
<glyph unicode="C" horiz-adv-x="1409" d="M66 674q0 143 55.5 272t149 222.5t222.5 148.5t271 55q184 0 342 -90t252 -242l-311 -180q-45 70 -120 111t-163 41q-140 0 -239 -99t-99 -239t99.5 -240t238.5 -100q89 0 163.5 41t119.5 112l311 -180q-92 -153 -250 -243.5t-344 -90.5q-142 0 -271 55.5t-222.5 149 t-149 223.5t-55.5 273z" />
<glyph unicode="D" horiz-adv-x="1470" d="M129 0v1352h619q317 0 485 -175.5t168 -500.5t-168 -500.5t-485 -175.5h-619zM522 291h180q155 0 233.5 104t78.5 281t-78.5 281t-233.5 104h-180v-770z" />
<glyph unicode="E" horiz-adv-x="1320" d="M129 0v1352h1075v-297h-682v-244h594v-281h-594v-233h709v-297h-1102z" />
<glyph unicode="F" horiz-adv-x="1239" d="M125 0v1352h1073v-336h-680v-283h592v-336h-592v-397h-393z" />
<glyph unicode="G" horiz-adv-x="1513" d="M63 674q0 143 55 273t148.5 223.5t223 148.5t272.5 55q161 0 303.5 -69.5t241.5 -190.5l-299 -211q-95 109 -246 109q-141 0 -238.5 -98.5t-97.5 -239.5q0 -140 98 -240t238 -100q92 0 170 45.5t123 120.5h-236v278h645v-119q-2 -141 -58.5 -268.5t-150.5 -219.5 t-223 -146t-270 -54q-191 0 -352 94t-254 255.5t-93 353.5z" />
<glyph unicode="H" horiz-adv-x="1511" d="M143 0v1352h394v-518h438v518h393v-1352h-393v473h-438v-473h-394z" />
<glyph unicode="I" horiz-adv-x="651" d="M127 0v1352h397v-1352h-397z" />
<glyph unicode="J" horiz-adv-x="1275" d="M53 496v127l385 -2v-154q4 -87 53 -135.5t119 -48.5q71 0 120.5 47.5t53.5 128.5q4 110 4 166v727h394v-840q0 -263 -147.5 -397.5t-428.5 -134.5q-264 0 -406 134.5t-147 381.5z" />
<glyph unicode="K" horiz-adv-x="1445" d="M129 0v1352h393v-570l441 570h430l-443 -545l471 -807h-444l-307 557l-148 -186v-371h-393z" />
<glyph unicode="L" horiz-adv-x="1220" d="M125 0v1352h393v-1037h656v-315h-1049z" />
<glyph unicode="M" horiz-adv-x="1863" d="M121 0v1352h555l194 -660l70 -274h4l72 274l192 660h535v-1352h-348v571l10 367h-4l-311 -938h-318l-307 938h-6l8 -367v-571h-346z" />
<glyph unicode="N" horiz-adv-x="1509" d="M129 0v1352h432l387 -678l94 -174h2l-8 243v609h346v-1352h-434l-387 678l-92 180h-4l8 -250v-608h-344z" />
<glyph unicode="O" horiz-adv-x="1525" d="M63 674q0 190 93.5 351t254.5 254t351 93q143 0 272.5 -55t223 -148.5t149 -222.5t55.5 -272t-55.5 -273t-149 -223.5t-223 -149t-272.5 -55.5q-190 0 -351 93.5t-254.5 255t-93.5 352.5zM424 674q0 -140 99.5 -240t238.5 -100q142 0 241 100t99 240t-99 239t-241 99 q-140 0 -239 -99t-99 -239z" />
<glyph unicode="P" horiz-adv-x="1394" d="M129 0v1352h674q250 0 397.5 -136.5t147.5 -355.5q0 -143 -65 -258t-190 -183.5t-290 -68.5h-289v-350h-385zM514 637h217q101 0 160 63.5t59 151.5q0 86 -59 147.5t-160 61.5h-217v-424z" />
<glyph unicode="Q" horiz-adv-x="1546" d="M63 674q0 190 93.5 351t254.5 254t351 93q143 0 272.5 -55t223 -148.5t149 -222.5t55.5 -272q0 -245 -153 -438l170 -234l-287 -207l-166 230q-129 -52 -264 -52q-190 0 -351 93.5t-254.5 255t-93.5 352.5zM424 674q0 -140 99.5 -240t238.5 -100q142 0 241 100t99 240 t-99 239t-241 99q-140 0 -239 -99t-99 -239z" />
<glyph unicode="R" horiz-adv-x="1411" d="M129 0v1352h674q250 0 397.5 -136.5t147.5 -355.5q0 -137 -61 -252.5t-173 -185.5l229 -422h-417l-176 336h-236v-336h-385zM514 637h217q101 0 160 63.5t59 151.5q0 86 -59 147.5t-160 61.5h-217v-424z" />
<glyph unicode="S" horiz-adv-x="1245" d="M72 352q0 55 10 109h309q-4 -25 -4 -76q0 -56 59.5 -101.5t159.5 -45.5q87 0 138 35.5t51 91.5q0 24 -9.5 44.5t-31 36.5t-40 27t-53.5 22.5t-54 17t-58 15.5q-57 15 -97 27t-93 32.5t-89 41.5t-74.5 52.5t-61 68t-37.5 86.5t-15 108q0 199 149 314.5t387 115.5 q245 0 377.5 -126.5t132.5 -354.5h-333v8q0 91 -42 143q-44 54 -135 54q-75 0 -116 -34t-41 -93q0 -29 15.5 -53t37 -40t60 -31.5t68 -24.5t77.5 -21q225 -53 340 -150.5t115 -273.5q0 -109 -44.5 -189.5t-122.5 -126t-173 -67t-209 -21.5q-263 0 -408 104t-145 275z" />
<glyph unicode="T" horiz-adv-x="1357" d="M47 1012v340h1264v-340h-434v-1012h-394v1012h-436z" />
<glyph unicode="U" horiz-adv-x="1433" d="M96 561v791h396v-807q0 -262 225 -262q227 0 227 262v807h393v-791q0 -581 -620 -581q-621 0 -621 581z" />
<glyph unicode="V" horiz-adv-x="1429" d="M10 1352h412l227 -731l72 -222l67 217l232 736h399l-471 -1352h-467z" />
<glyph unicode="W" horiz-adv-x="2070" d="M29 1352h409l187 -926l225 926h381l231 -924l187 924h391l-373 -1352h-424l-143 575l-58 240h-4l-57 -240l-141 -575h-439z" />
<glyph unicode="X" horiz-adv-x="1474" d="M39 0l442 678l-420 674h451l238 -394l237 394h414l-418 -662l451 -690h-459l-258 381l-248 -381h-430z" />
<glyph unicode="Y" horiz-adv-x="1372" d="M14 1352h400l176 -351l98 -208l100 208l175 351h395l-475 -867v-485h-394v485z" />
<glyph unicode="Z" horiz-adv-x="1300" d="M51 0l629 1020h-557v332h1161l-641 -1049h590v-303h-1182z" />
<glyph unicode="[" horiz-adv-x="808" d="M168 -344v1796h598v-340h-264v-1116h264v-340h-598z" />
<glyph unicode="\" horiz-adv-x="960" d="M-18 1450h362l604 -1593h-362z" />
<glyph unicode="]" horiz-adv-x="808" d="M43 -4h264v1116h-264v340h598v-1796h-598v340z" />
<glyph unicode="^" horiz-adv-x="1265" d="M43 727l428 754h326l426 -754h-324l-266 481l-266 -481h-324z" />
<glyph unicode="_" horiz-adv-x="1093" d="M-6 -121h1104v-303h-1104v303z" />
<glyph unicode="`" horiz-adv-x="1013" d="M182 1505h324l166 -356h-318z" />
<glyph unicode="a" horiz-adv-x="1198" d="M80 231q0 120 81.5 197t260.5 121q18 6 295 53v47q0 61 -37 97t-100 36q-144 0 -168 -143l-318 68q22 160 150.5 248.5t355.5 88.5q249 0 376.5 -100.5t127.5 -300.5v-346v-301h-338v127q-50 -73 -141 -112.5t-215 -39.5q-160 0 -245 68t-85 192zM449 297q0 -42 30.5 -65 t77.5 -23q64 0 112 36t48 97v96q-82 -12 -166 -35q-51 -16 -76.5 -44.5t-25.5 -61.5z" />
<glyph unicode="b" horiz-adv-x="1265" d="M96 0v1450h389v-469q108 63 232 63q95 0 182.5 -37t155.5 -104t108.5 -169.5t40.5 -223.5q0 -120 -39.5 -221.5t-106 -169.5t-155 -106t-186.5 -38q-162 0 -293 103v-78h-328zM424 508q0 -96 64 -157.5t155 -61.5q87 0 150 63.5t63 159.5t-63 160.5t-150 64.5 q-89 0 -154 -62.5t-65 -160.5v-6z" />
<glyph unicode="c" horiz-adv-x="1128" d="M59 506q0 150 72.5 274.5t198 195.5t274.5 71q162 0 287 -82.5t190 -227.5l-280 -137q-25 57 -81 93t-122 36q-88 0 -150.5 -65.5t-62.5 -157.5q0 -91 62.5 -156t150.5 -65q65 0 118.5 32.5t80.5 85.5l284 -131q-64 -142 -189 -220.5t-288 -78.5q-150 0 -274.5 68.5 t-197.5 191t-73 273.5z" />
<glyph unicode="d" horiz-adv-x="1261" d="M57 510q0 121 40.5 223.5t109 169.5t156 104t182.5 37q123 0 231 -63v469h389v-1450h-327v78q-131 -103 -293 -103q-98 0 -186.5 38t-155.5 106t-106.5 169.5t-39.5 221.5zM406 512q0 -96 62.5 -159.5t149.5 -63.5q91 0 155.5 61.5t64.5 157.5v6q0 98 -65 160.5 t-155 62.5q-87 0 -149.5 -64.5t-62.5 -160.5z" />
<glyph unicode="e" horiz-adv-x="1187" d="M59 512q0 150 64 270.5t190 192.5t293 72q246 0 385 -138.5t139 -376.5q0 -71 -10 -116h-710q19 -85 73.5 -126.5t130.5 -41.5q69 0 119.5 27.5t63.5 76.5l313 -94q-39 -136 -171 -210.5t-312 -74.5q-272 0 -420 144t-148 395zM410 598h385q-17 87 -67.5 133.5 t-123.5 46.5q-161 0 -194 -180z" />
<glyph unicode="f" horiz-adv-x="905" d="M31 723v270h155v107q0 100 34 175.5t95 120t137 66t166 21.5q151 0 236 -58v-270q-85 33 -137 33q-77 0 -121.5 -34.5t-44.5 -90.5v-70h305v-270h-281v-723h-389v723h-155z" />
<glyph unicode="g" horiz-adv-x="1228" d="M57 -205q0 66 47.5 117.5t147.5 73.5q-166 69 -166 211q0 76 44 132t120 85q-164 89 -164 278q0 167 134.5 259.5t383.5 92.5q99 0 170 -14l174 156l197 -168l-113 -105q90 -87 90 -221q0 -166 -135 -258t-383 -92q-115 0 -219 23q-41 -17 -41 -56q0 -61 102 -61h351 q186 0 286.5 -80t100.5 -234q0 -374 -615 -374q-260 0 -386 62t-126 173zM346 -125q0 -46 61.5 -65t204.5 -19q271 0 271 86q0 68 -109 68h-282q-77 0 -111.5 -16.5t-34.5 -53.5zM457 686q0 -63 43.5 -104t103.5 -41t104 41t44 104q0 64 -43.5 103.5t-104.5 39.5t-104 -39.5 t-43 -103.5z" />
<glyph unicode="h" horiz-adv-x="1245" d="M96 0v1450h389v-494q141 88 324 88q158 0 250 -93t92 -263v-688h-389v584q0 91 -31 129.5t-90 38.5q-71 0 -113.5 -52.5t-42.5 -160.5v-539h-389z" />
<glyph unicode="i" horiz-adv-x="614" d="M94 1348q0 87 62 150t151 63q86 0 149.5 -63.5t63.5 -149.5q0 -87 -63 -150t-150 -63q-89 0 -151 62.5t-62 150.5zM115 0v1024h389v-1024h-389z" />
<glyph unicode="j" horiz-adv-x="608" d="M-10 -96q68 0 102.5 30.5t34.5 98.5v991h389v-1071q0 -74 -11 -131t-30 -99t-53 -71t-73 -47t-97 -28t-117.5 -13.5t-142.5 -3.5zM104 1348q0 88 63 151.5t152 63.5q88 0 152 -63.5t64 -151.5t-64 -151.5t-152 -63.5q-89 0 -152 63.5t-63 151.5z" />
<glyph unicode="k" horiz-adv-x="1290" d="M92 0v1450h389v-832l361 406h426l-375 -401l397 -623h-428l-227 399l-154 -178v-221h-389z" />
<glyph unicode="l" horiz-adv-x="587" d="M100 0v1450h387v-1450h-387z" />
<glyph unicode="m" horiz-adv-x="1921" d="M111 0v1024h350l10 -205q47 110 136.5 167.5t211.5 57.5q115 0 198.5 -53t119.5 -153q49 101 137.5 153.5t204.5 52.5q155 0 247.5 -92.5t92.5 -263.5l-7 -688h-382v594q0 158 -117 158q-71 0 -112.5 -53.5t-41.5 -155.5v-543h-389v594q0 158 -117 158q-69 0 -111 -53 t-42 -160v-539h-389z" />
<glyph unicode="n" horiz-adv-x="1251" d="M96 0v1024h348l11 -203q47 110 138 166.5t216 56.5q158 0 250 -93t92 -263v-688h-389v584q0 91 -31 129.5t-90 38.5q-71 0 -113.5 -52.5t-42.5 -160.5v-539h-389z" />
<glyph unicode="o" horiz-adv-x="1181" d="M43 506q0 112 43 212.5t116.5 172.5t175 114t214.5 42q149 0 274.5 -71t199 -195.5t73.5 -274.5t-73.5 -273t-199 -191.5t-274.5 -68.5q-151 0 -276.5 68.5t-199 191t-73.5 273.5zM369 506q0 -92 64.5 -156.5t156.5 -64.5t157.5 64.5t65.5 156.5q0 94 -65.5 159.5 t-157.5 65.5t-156.5 -65.5t-64.5 -159.5z" />
<glyph unicode="p" horiz-adv-x="1271" d="M94 -430v1454h344v-82q130 102 295 102q98 0 186.5 -38t155.5 -105.5t106.5 -169t39.5 -221.5q0 -121 -40.5 -223.5t-109 -169.5t-156 -104.5t-182.5 -37.5q-133 0 -250 74v-479h-389zM438 506h2q0 -98 65 -160.5t154 -62.5q87 0 150 64.5t63 160.5t-63 159.5t-150 63.5 q-91 0 -155 -61.5t-64 -157.5l-2 2v-8z" />
<glyph unicode="q" horiz-adv-x="1275" d="M63 510q0 121 40.5 223.5t109 169.5t156 104t182.5 37q170 0 297 -108v88h336v-1454h-389v473q-114 -68 -244 -68q-98 0 -186.5 38t-155.5 106t-106.5 169.5t-39.5 221.5zM412 512q0 -96 63 -159.5t150 -63.5q91 0 155 61.5t64 157.5v6q0 98 -65 160.5t-154 62.5 q-87 0 -150 -64.5t-63 -160.5z" />
<glyph unicode="r" horiz-adv-x="921" d="M102 0v1024h367v-94q103 114 303 114q67 0 107 -22l-37 -326q-47 31 -129 31q-97 0 -159 -56.5t-62 -162.5v-508h-390z" />
<glyph unicode="s" horiz-adv-x="1081" d="M59 150l170 217q98 -118 297 -125h13q49 0 85 13q40 15 40 44q0 27 -45 47t-132 39q-214 45 -309.5 113.5t-95.5 197.5q0 67 30 128.5t88 112t154 80.5t217 30q312 0 455 -181l-178 -204q-87 122 -260 122q-67 0 -102 -20t-35 -47q0 -59 161 -90q207 -39 308.5 -110.5 t101.5 -201.5q0 -153 -120.5 -247.5t-366.5 -94.5q-154 0 -278.5 44.5t-197.5 132.5z" />
<glyph unicode="t" horiz-adv-x="958" d="M47 723v270h170v348h389v-348h291v-270h-291v-266q0 -140 129 -140q55 0 125 31l37 -293q-50 -35 -127 -55t-156 -20q-188 0 -292.5 106.5t-104.5 294.5v342h-170z" />
<glyph unicode="u" horiz-adv-x="1241" d="M90 377v647h389v-590q0 -89 29.5 -125.5t91.5 -36.5q72 0 114 53t42 158v541h389v-1024h-352l-5 117q-35 -79 -110 -112.5t-213 -33.5q-375 0 -375 406z" />
<glyph unicode="v" horiz-adv-x="1224" d="M20 1024h408l184 -782l189 782h403l-354 -1024h-473z" />
<glyph unicode="w" horiz-adv-x="1923" d="M27 1024h405l156 -752l182 752h383l182 -754l154 754h407l-301 -1024h-473l-164 612l-159 -612h-473z" />
<glyph unicode="x" horiz-adv-x="1284" d="M55 0l320 518l-307 506h405l174 -297l174 297h414l-324 -508l332 -516h-420l-186 311l-184 -311h-398z" />
<glyph unicode="y" horiz-adv-x="1245" d="M35 -369l78 256q34 -26 73 -36.5t105 -10.5q65 0 99 18t54 66l19 47l-121 287l-303 766h428l135 -485l45 -183l53 191l140 477h385l-351 -985q-91 -265 -213 -372t-335 -107q-177 0 -291 71z" />
<glyph unicode="z" horiz-adv-x="1034" d="M4 0l481 743h-426v281h969l-465 -754h457v-270h-1016z" />
<glyph unicode="{" horiz-adv-x="880" d="M84 432v244q124 0 176.5 48.5t52.5 164.5v244q0 202 120 285t405 83l6 -241q-117 0 -170 -43t-53 -138v-276q0 -158 -119 -248q119 -93 119 -250v-276q0 -95 53 -138t170 -43l-6 -241q-286 0 -405.5 83t-119.5 287v242q0 116 -52.5 164.5t-176.5 48.5z" />
<glyph unicode="|" horiz-adv-x="679" d="M168 -344v1796h344v-1796h-344z" />
<glyph unicode="}" horiz-adv-x="880" d="M37 -152q117 0 170 43t53 138v276q0 157 119 250q-119 90 -119 248v276q0 95 -53 138t-170 43l6 241q285 0 404.5 -83t119.5 -285v-244q0 -115 52.5 -164t177.5 -49v-244q-125 0 -177.5 -49t-52.5 -164v-242q0 -204 -119 -287t-405 -83z" />
<glyph unicode="~" horiz-adv-x="1236" d="M82 483q9 205 95.5 311.5t248.5 106.5q64 0 120 -20t87.5 -43.5t68 -43.5t66.5 -20q40 0 61 27.5t29 87.5h297q-9 -205 -95.5 -311.5t-246.5 -106.5q-65 0 -121 19.5t-87.5 43t-67.5 43t-66 19.5q-41 0 -62.5 -27t-29.5 -86h-297z" />
<glyph unicode="&#xa1;" horiz-adv-x="614" d="M104 838q0 86 59 146t144 60q86 0 145.5 -60t59.5 -146q0 -85 -59.5 -145t-145.5 -60q-85 0 -144 60t-59 145zM106 -328l41 869h326l39 -869h-406z" />
<glyph unicode="&#xa2;" horiz-adv-x="1171" d="M70 506q0 205 135 360t338 187v176h170v-176q145 -20 259 -104.5t175 -211.5l-295 -129q-20 45 -57 78.5t-82 48.5v-459q91 31 135 121l297 -125q-59 -127 -173.5 -211t-258.5 -104v-162h-170v162q-203 32 -338 187.5t-135 361.5zM391 506q0 -76 42 -137.5t110 -87.5v450 q-68 -26 -110 -87.5t-42 -137.5z" />
<glyph unicode="&#xa3;" horiz-adv-x="1265" d="M57 172q0 91 75.5 143t186.5 52q61 0 132 -11q-6 86 -41 160h-322v217h176q-47 68 -65.5 123.5t-18.5 118.5q0 80 31.5 150.5t91.5 126t157 88t218 32.5q426 0 502 -366l-314 -144q-29 130 -74 182t-124 52q-68 0 -109 -35.5t-41 -97.5q0 -74 82 -195q22 -33 23 -35h403 v-217h-313q6 -40 6 -84q0 -81 -25 -158q88 -36 162 -36q136 0 127 163l225 -30q22 -99 -2 -187.5t-96.5 -146t-179.5 -57.5q-96 0 -171 32t-161 90q-116 -122 -291 -122q-109 0 -179.5 50.5t-70.5 141.5zM236 174q0 -28 21 -43.5t56 -15.5q92 0 121 88q-60 26 -119 26 q-79 0 -79 -55z" />
<glyph unicode="&#xa4;" horiz-adv-x="1304" d="M53 299l205 178q-43 85 -43 199q0 111 43 198l-205 177l221 221l185 -209q84 37 194 37q112 0 193 -37l182 209l223 -221l-204 -181q43 -82 43 -194q0 -114 -43 -199l204 -178l-223 -223l-184 211q-81 -37 -191 -37q-112 0 -196 37l-183 -211zM504 676q0 -72 40.5 -115 t108.5 -43q67 0 107.5 43t40.5 115q0 71 -40.5 113t-107.5 42q-68 0 -108.5 -42.5t-40.5 -112.5z" />
<glyph unicode="&#xa5;" horiz-adv-x="1404" d="M27 1352h399l274 -465h5l276 465h397l-458 -731l129 8h235v-123h-407v-131h407v-119h-407v-256h-349v256h-407v119h407v131h-407v123h235l129 -8z" />
<glyph unicode="&#xa6;" horiz-adv-x="555" d="M104 -344v786h345v-786h-345zM104 666v786h345v-786h-345z" />
<glyph unicode="&#xa7;" horiz-adv-x="1275" d="M39 555q0 191 147 301q-26 59 -26 137q0 172 131 275.5t358 103.5q182 0 290 -47t191 -147l-190 -181q-56 69 -120 99t-169 30q-101 0 -156 -27t-55 -71q0 -46 56.5 -70.5t205.5 -39.5q280 -24 407.5 -109t127.5 -238q0 -191 -147 -301q26 -59 26 -137 q0 -169 -129 -263.5t-356 -94.5q-181 0 -291 46.5t-195 147.5l193 183q54 -71 119 -101.5t170 -30.5q106 0 157.5 18t51.5 60q0 45 -58 70.5t-205 40.5q-281 24 -407.5 108t-126.5 238zM307 614q0 -50 60 -76.5t217 -41.5q199 -18 321 -68q64 31 64 84q0 49 -60.5 76.5 t-214.5 42.5q-201 18 -323 67q-64 -31 -64 -84z" />
<glyph unicode="&#xa8;" horiz-adv-x="1013" d="M94 1309q0 77 54.5 131.5t130.5 54.5t130 -54.5t54 -131.5q0 -75 -54 -130t-130 -55t-130.5 55t-54.5 130zM553 1309q0 77 54 131.5t130 54.5q77 0 132 -55t55 -131q0 -75 -55.5 -130t-131.5 -55t-130 55t-54 130z" />
<glyph unicode="&#xa9;" horiz-adv-x="1548" d="M66 678q0 143 56.5 274t152 226t227.5 151.5t276 56.5q143 0 274.5 -56.5t227 -151.5t152.5 -226t57 -274q0 -145 -57 -277t-152.5 -227.5t-227 -152t-274.5 -56.5q-192 0 -356 95.5t-260 260t-96 357.5zM242 676q0 -145 72 -269t195.5 -196t268.5 -72q108 0 207 43 t171.5 115t115.5 171t43 208q0 146 -72.5 270t-196.5 196t-268 72q-145 0 -268.5 -72t-195.5 -196t-72 -270zM362 670q0 170 123.5 291.5t298.5 121.5q125 0 229 -66.5t154 -174.5l-217 -94q-22 48 -66.5 77t-99.5 29q-76 0 -130 -54.5t-54 -131.5q0 -75 54 -130t130 -55 q52 0 96 28.5t68 74.5l219 -92q-50 -109 -153.5 -175.5t-229.5 -66.5q-175 0 -298.5 122.5t-123.5 295.5z" />
<glyph unicode="&#xaa;" horiz-adv-x="913" d="M43 788q0 91 66 145t217 85l157 35v24q0 41 -23.5 64.5t-66.5 23.5q-93 0 -106 -98l-234 47q14 113 105 176.5t252 63.5q181 0 268.5 -71t87.5 -214v-221q0 -64 55 -64q27 0 39 9l-22 -150q-52 -27 -119 -27q-72 0 -122 30t-67 87q-75 -117 -262 -117q-110 0 -167.5 44 t-57.5 128zM68 285v198h770v-198h-770zM315 838q0 -58 70 -58q40 0 69 23.5t29 66.5v72l-75 -18q-93 -25 -93 -86z" />
<glyph unicode="&#xab;" horiz-adv-x="1230" d="M59 543l256 401h330l-244 -401l244 -402h-330zM586 543l256 401h329l-243 -401l243 -402h-329z" />
<glyph unicode="&#xac;" d="M117 535v270h993v-621h-307v351h-686z" />
<glyph unicode="&#xad;" horiz-adv-x="1079" d="M156 397v308h766v-308h-766z" />
<glyph unicode="&#xae;" horiz-adv-x="1538" d="M55 678q0 143 57 274t152.5 226t227.5 151.5t276 56.5q143 0 274.5 -56.5t227 -151.5t152.5 -226t57 -274q0 -145 -57 -277t-152.5 -227.5t-227 -152t-274.5 -56.5q-144 0 -276 56.5t-227.5 152t-152.5 227.5t-57 277zM231 676q0 -109 43 -208t115 -171t171 -115t208 -43 q108 0 207 43t171.5 115t115.5 171t43 208q0 146 -72.5 270t-196.5 196t-268 72q-109 0 -208 -42.5t-171.5 -114.5t-115 -172t-42.5 -209zM469 313v744h369q113 0 188.5 -69.5t75.5 -176.5q0 -166 -156 -225l174 -273h-270l-121 252h-37v-252h-223zM692 715h88q94 0 94 78 q0 77 -94 77h-88v-155z" />
<glyph unicode="&#xaf;" horiz-adv-x="1013" d="M121 1153v231h772v-231h-772z" />
<glyph unicode="&#xb0;" horiz-adv-x="944" d="M106 1008q0 152 107.5 259t261.5 107q151 0 258 -107t107 -259t-107 -259.5t-258 -107.5q-154 0 -261.5 107.5t-107.5 259.5zM362 1008q0 -46 33 -79.5t80 -33.5q44 0 77.5 33.5t33.5 79.5t-33 79t-78 33q-47 0 -80 -33t-33 -79z" />
<glyph unicode="&#xb1;" d="M94 2v250h1039v-250h-1039zM94 737v260h383v344h275v-344h381v-260h-381v-344h-275v344h-383z" />
<glyph unicode="&#xb2;" horiz-adv-x="684" d="M41 1217q0 132 85 211t226 79q81 0 140.5 -23.5t91 -63t46.5 -83t15 -92.5q0 -103 -56.5 -188t-164.5 -180h104h119v-195h-579v129q44 47 105 108.5t97 98t72.5 78.5t53 74.5t16.5 60.5q0 78 -70 78q-87 0 -90 -144z" />
<glyph unicode="&#xb3;" horiz-adv-x="735" d="M47 883l211 88q3 -105 102 -105q40 0 64.5 19.5t24.5 56.5q0 68 -89 68h-47v137h39q82 0 82 76q0 35 -21 54t-55 19q-84 0 -92 -102l-203 80q20 109 104 170t202 61q137 0 218 -65t81 -168q0 -71 -37 -120t-76 -60q45 -5 86 -56t41 -125q0 -103 -82.5 -172t-216.5 -69 q-129 0 -215.5 56t-120.5 157z" />
<glyph unicode="&#xb4;" horiz-adv-x="1013" d="M342 1149l166 356h323l-172 -356h-317z" />
<glyph unicode="&#xb5;" horiz-adv-x="1255" d="M100 -430v1454h389v-590q0 -89 29.5 -125.5t91.5 -36.5q71 0 111.5 47.5t44.5 139.5v565h389v-1024h-346l-12 190q-83 -210 -299 -210h-9v-410h-389z" />
<glyph unicode="&#xb6;" horiz-adv-x="1562" d="M68 907q0 223 141.5 334t431.5 111h797v-1557h-314v1262h-211v-1262h-315v674q-261 2 -395.5 111.5t-134.5 326.5z" />
<glyph unicode="&#xb7;" horiz-adv-x="571" d="M80 725q0 85 59.5 144t145.5 59q85 0 143.5 -59t58.5 -144q0 -86 -58.5 -145.5t-143.5 -59.5q-86 0 -145.5 59.5t-59.5 145.5z" />
<glyph unicode="&#xb8;" horiz-adv-x="1013" d="M238 -354l84 172q60 -60 149 -60q50 0 81.5 27t31.5 72q0 53 -49.5 87.5t-176.5 59.5l84 76q174 -20 268.5 -94.5t94.5 -180.5q0 -123 -84 -184t-221 -61q-172 0 -262 86z" />
<glyph unicode="&#xb9;" horiz-adv-x="604" d="M31 1368l278 127h219v-813h-262v489v11l-133 -64z" />
<glyph unicode="&#xba;" horiz-adv-x="882" d="M57 985q0 174 102 271.5t281 97.5q181 0 283 -97.5t102 -271.5q0 -173 -102.5 -271t-282.5 -98q-179 0 -281 98t-102 271zM68 285v198h747v-198h-747zM342 985q0 -100 23 -144t75 -44q54 0 77.5 44t23.5 144q0 101 -23.5 146t-77.5 45q-52 0 -75 -44.5t-23 -146.5z" />
<glyph unicode="&#xbb;" horiz-adv-x="1228" d="M57 141l244 402l-244 401h330l256 -401l-256 -402h-330zM584 141l243 402l-243 401h329l256 -401l-256 -402h-329z" />
<glyph unicode="&#xbc;" horiz-adv-x="1609" d="M31 1235l278 127h219v-813h-262v489v11l-133 -64zM442 0l521 1354h264l-520 -1354h-265zM940 162v100l236 543h344v-475h43v-168h-43v-170h-209v170h-371zM1178 330h133l2 188l2 123z" />
<glyph unicode="&#xbd;" horiz-adv-x="1751" d="M31 1235l278 127h219v-813h-262v489v11l-133 -64zM442 0l521 1354h264l-520 -1354h-265zM1108 526q0 132 85 211.5t226 79.5q81 0 140.5 -23.5t91 -63t46.5 -83t15 -92.5q0 -103 -57 -188.5t-164 -180.5h104h119v-194h-579v129q44 47 105 108.5t97 98t72.5 78.5t53 74.5 t16.5 60.5q0 77 -70 77q-87 0 -90 -143z" />
<glyph unicode="&#xbe;" horiz-adv-x="1740" d="M47 750l211 88q3 -105 102 -105q40 0 64.5 19.5t24.5 56.5q0 68 -89 68h-47v137h39q82 0 82 76q0 35 -21 54t-55 19q-84 0 -92 -102l-203 80q20 109 104 170t202 61q137 0 218 -65t81 -168q0 -72 -37 -121t-76 -60q45 -5 86 -55.5t41 -124.5q0 -103 -82.5 -172 t-216.5 -69q-129 0 -215.5 56t-120.5 157zM573 0l521 1354h264l-520 -1354h-265zM1071 162v100l236 543h344v-475h43v-168h-43v-170h-209v170h-371zM1309 330h133l2 188l2 123z" />
<glyph unicode="&#xbf;" horiz-adv-x="1259" d="M193 61q0 152 91.5 273t235.5 166v110h293v-352l-145 -18q-82 -11 -132.5 -59.5t-50.5 -119.5q0 -72 53 -124t124 -52q53 0 95.5 30t63.5 77l266 -125q-56 -120 -171 -193t-254 -73q-195 0 -332 134t-137 326zM467 858q0 80 56.5 135.5t138.5 55.5q83 0 140.5 -55.5 t57.5 -135.5q0 -78 -57.5 -133t-140.5 -55q-82 0 -138.5 55t-56.5 133z" />
<glyph unicode="&#xc0;" horiz-adv-x="1384" d="M8 0l447 1352h473l448 -1352h-389l-57 203h-484l-59 -203h-379zM379 1802h334l110 -332h-311zM535 508h309l-94 330l-58 219h-6l-55 -217z" />
<glyph unicode="&#xc1;" horiz-adv-x="1384" d="M8 0l447 1352h473l448 -1352h-389l-57 203h-484l-59 -203h-379zM530 1470l111 332h334l-133 -332h-312zM535 508h309l-94 330l-58 219h-6l-55 -217z" />
<glyph unicode="&#xc2;" horiz-adv-x="1384" d="M8 0l447 1352h473l448 -1352h-389l-57 203h-484l-59 -203h-379zM281 1466l225 342h371l223 -342h-295l-115 168l-112 -168h-297zM535 508h309l-94 330l-58 219h-6l-55 -217z" />
<glyph unicode="&#xc3;" horiz-adv-x="1384" d="M8 0l447 1352h473l448 -1352h-389l-57 203h-484l-59 -203h-379zM276 1464q6 169 77.5 253.5t203.5 84.5q54 0 97.5 -17.5t65.5 -38.5t49 -38.5t52 -17.5q32 0 49 26t23 82h213q-12 -336 -281 -336q-54 0 -97.5 17.5t-66 38t-49.5 38t-53 17.5q-60 0 -72 -109h-211z M535 508h309l-94 330l-58 219h-6l-55 -217z" />
<glyph unicode="&#xc4;" horiz-adv-x="1384" d="M8 0l447 1352h473l448 -1352h-389l-57 203h-484l-59 -203h-379zM276 1636q0 77 54.5 132t130.5 55t130 -55t54 -132q0 -75 -54 -129.5t-130 -54.5t-130.5 54.5t-54.5 129.5zM535 508h309l-94 330l-58 219h-6l-55 -217zM735 1636q0 77 54.5 132t130.5 55t131 -55t55 -132 q0 -75 -55 -129.5t-131 -54.5t-130.5 54.5t-54.5 129.5z" />
<glyph unicode="&#xc5;" horiz-adv-x="1384" d="M8 0l436 1321q-69 66 -69 176q0 123 85 196.5t234 73.5q148 0 233 -73.5t85 -196.5q0 -109 -74 -174l438 -1323h-389l-57 203h-484l-59 -203h-379zM535 508h309l-94 330l-58 219h-6l-55 -217zM580 1483q0 -50 30 -78.5t82 -28.5q54 0 84.5 28.5t30.5 78.5 q0 51 -30.5 79.5t-84.5 28.5q-53 0 -82.5 -28.5t-29.5 -79.5z" />
<glyph unicode="&#xc6;" horiz-adv-x="1867" d="M-16 0l530 1352h1280v-283h-586v-260h449v-266h-449v-260h613v-283h-977v393h-336l-133 -393h-391zM590 639h254v442h-105z" />
<glyph unicode="&#xc7;" horiz-adv-x="1409" d="M66 674q0 143 55.5 272t149 222.5t222.5 148.5t271 55q184 0 342 -90t252 -242l-311 -180q-45 70 -120 111t-163 41q-140 0 -239 -99t-99 -239t99.5 -240t238.5 -100q89 0 163.5 41t119.5 112l311 -180q-71 -119 -183.5 -201t-250.5 -114q102 -73 102 -187 q0 -123 -84 -184t-221 -61q-172 0 -262 86l84 172q60 -60 149 -60q50 0 81.5 27t31.5 72q0 40 -27.5 69t-95.5 51q-171 20 -312 117t-222.5 250t-81.5 330z" />
<glyph unicode="&#xc8;" horiz-adv-x="1320" d="M129 0v1352h1075v-297h-682v-244h594v-281h-594v-233h709v-297h-1102zM391 1802h334l111 -332h-312z" />
<glyph unicode="&#xc9;" horiz-adv-x="1320" d="M129 0v1352h1075v-297h-682v-244h594v-281h-594v-233h709v-297h-1102zM498 1470l110 332h334l-133 -332h-311z" />
<glyph unicode="&#xca;" horiz-adv-x="1320" d="M129 0v1352h1075v-297h-682v-244h594v-281h-594v-233h709v-297h-1102zM240 1466l225 342h371l223 -342h-295l-115 168l-112 -168h-297z" />
<glyph unicode="&#xcb;" horiz-adv-x="1320" d="M129 0v1352h1075v-297h-682v-244h594v-281h-594v-233h709v-297h-1102zM236 1636q0 77 54 132t130 55t130 -55t54 -132q0 -75 -54 -129.5t-130 -54.5t-130 54.5t-54 129.5zM694 1636q0 77 54.5 132t130.5 55t131 -55t55 -132q0 -75 -55 -129.5t-131 -54.5t-130.5 54.5 t-54.5 129.5z" />
<glyph unicode="&#xcc;" horiz-adv-x="651" d="M12 1802h334l111 -332h-312zM127 0v1352h397v-1352h-397z" />
<glyph unicode="&#xcd;" horiz-adv-x="651" d="M127 0v1352h397v-1352h-397zM172 1470l111 332h333l-133 -332h-311z" />
<glyph unicode="&#xce;" horiz-adv-x="651" d="M-86 1466l225 342h371l223 -342h-295l-114 168l-113 -168h-297zM127 0v1352h397v-1352h-397z" />
<glyph unicode="&#xcf;" horiz-adv-x="651" d="M-72 1622q0 78 47 123t131 45q86 0 135.5 -45t49.5 -123q0 -79 -49 -123.5t-136 -44.5q-85 0 -131.5 44t-46.5 124zM127 0v1352h397v-1352h-397zM360 1622q0 78 47.5 123t131.5 45q86 0 135 -45t49 -123q0 -79 -49 -123.5t-135 -44.5q-85 0 -132 44t-47 124z" />
<glyph unicode="&#xd0;" horiz-adv-x="1509" d="M14 545v258h166v549h619q317 0 485 -175.5t168 -500.5t-168 -500.5t-485 -175.5h-619v545h-166zM573 291h181q154 0 232.5 104t78.5 281t-78.5 281t-232.5 104h-181v-258h236v-258h-236v-254z" />
<glyph unicode="&#xd1;" horiz-adv-x="1509" d="M129 0v1352h432l387 -678l94 -174h2l-8 243v609h346v-1352h-434l-387 678l-92 180h-4l8 -250v-608h-344zM342 1464q6 169 77.5 253.5t203.5 84.5q54 0 97.5 -17.5t65.5 -38.5t49 -38.5t52 -17.5q32 0 48.5 26t22.5 82h213q-12 -336 -280 -336q-54 0 -97.5 17.5t-66 38 t-49.5 38t-53 17.5q-60 0 -72 -109h-211z" />
<glyph unicode="&#xd2;" horiz-adv-x="1525" d="M63 674q0 190 93.5 351t254.5 254t351 93q143 0 272.5 -55t223 -148.5t149 -222.5t55.5 -272t-55.5 -273t-149 -223.5t-223 -149t-272.5 -55.5q-190 0 -351 93.5t-254.5 255t-93.5 352.5zM424 674q0 -140 99.5 -240t238.5 -100q142 0 241 100t99 240t-99 239t-241 99 q-140 0 -239 -99t-99 -239zM469 1802h334l110 -332h-311z" />
<glyph unicode="&#xd3;" horiz-adv-x="1525" d="M63 674q0 190 93.5 351t254.5 254t351 93q143 0 272.5 -55t223 -148.5t149 -222.5t55.5 -272t-55.5 -273t-149 -223.5t-223 -149t-272.5 -55.5q-190 0 -351 93.5t-254.5 255t-93.5 352.5zM424 674q0 -140 99.5 -240t238.5 -100q142 0 241 100t99 240t-99 239t-241 99 q-140 0 -239 -99t-99 -239zM602 1470l111 332h334l-134 -332h-311z" />
<glyph unicode="&#xd4;" horiz-adv-x="1525" d="M63 674q0 190 93.5 351t254.5 254t351 93q143 0 272.5 -55t223 -148.5t149 -222.5t55.5 -272t-55.5 -273t-149 -223.5t-223 -149t-272.5 -55.5q-190 0 -351 93.5t-254.5 255t-93.5 352.5zM350 1466l225 342h371l223 -342h-295l-114 168l-113 -168h-297zM424 674 q0 -140 99.5 -240t238.5 -100q142 0 241 100t99 240t-99 239t-241 99q-140 0 -239 -99t-99 -239z" />
<glyph unicode="&#xd5;" horiz-adv-x="1525" d="M63 674q0 190 93.5 351t254.5 254t351 93q143 0 272.5 -55t223 -148.5t149 -222.5t55.5 -272t-55.5 -273t-149 -223.5t-223 -149t-272.5 -55.5q-190 0 -351 93.5t-254.5 255t-93.5 352.5zM346 1464q6 169 77.5 253.5t203.5 84.5q54 0 97.5 -17.5t65.5 -38.5t49 -38.5 t52 -17.5q32 0 49 26t23 82h213q-12 -336 -281 -336q-54 0 -97.5 17.5t-66 38t-49.5 38t-53 17.5q-60 0 -72 -109h-211zM424 674q0 -140 99.5 -240t238.5 -100q142 0 241 100t99 240t-99 239t-241 99q-140 0 -239 -99t-99 -239z" />
<glyph unicode="&#xd6;" horiz-adv-x="1525" d="M63 674q0 190 93.5 351t254.5 254t351 93q143 0 272.5 -55t223 -148.5t149 -222.5t55.5 -272t-55.5 -273t-149 -223.5t-223 -149t-272.5 -55.5q-190 0 -351 93.5t-254.5 255t-93.5 352.5zM348 1636q0 77 54 132t130 55t130.5 -55t54.5 -132q0 -75 -54.5 -129.5 t-130.5 -54.5t-130 54.5t-54 129.5zM424 674q0 -140 99.5 -240t238.5 -100q142 0 241 100t99 240t-99 239t-241 99q-140 0 -239 -99t-99 -239zM807 1636q0 77 54 132t130 55q77 0 132 -55.5t55 -131.5q0 -75 -55.5 -129.5t-131.5 -54.5t-130 54.5t-54 129.5z" />
<glyph unicode="&#xd7;" d="M92 358l207 -206l313 313l314 -313l207 206l-314 314l314 313l-207 207l-314 -313l-313 313l-207 -207l520 -520l207 207l-207 207z" />
<glyph unicode="&#xd8;" horiz-adv-x="1529" d="M63 674q0 190 93.5 351t254.5 254t351 93q194 0 362 -100l88 123h181l-154 -209q105 -97 164 -230t59 -282q0 -143 -55.5 -273t-149 -223.5t-223 -149t-272.5 -55.5q-196 0 -359 99l-88 -123h-182l154 211q-105 97 -164.5 230t-59.5 284zM424 674q0 -132 90 -232l383 543 q-69 27 -135 27q-140 0 -239 -99t-99 -239zM639 356q61 -22 123 -22q142 0 241 100t99 240q0 126 -82 221z" />
<glyph unicode="&#xd9;" horiz-adv-x="1433" d="M96 561v791h396v-807q0 -262 225 -262q227 0 227 262v807h393v-791q0 -581 -620 -581q-621 0 -621 581zM406 1802h333l111 -332h-311z" />
<glyph unicode="&#xda;" horiz-adv-x="1433" d="M96 561v791h396v-807q0 -262 225 -262q227 0 227 262v807h393v-791q0 -581 -620 -581q-621 0 -621 581zM557 1470l111 332h333l-133 -332h-311z" />
<glyph unicode="&#xdb;" horiz-adv-x="1433" d="M96 561v791h396v-807q0 -262 225 -262q227 0 227 262v807h393v-791q0 -581 -620 -581q-621 0 -621 581zM307 1466l225 342h371l223 -342h-295l-114 168l-113 -168h-297z" />
<glyph unicode="&#xdc;" horiz-adv-x="1433" d="M96 561v791h396v-807q0 -262 225 -262q227 0 227 262v807h393v-791q0 -581 -620 -581q-621 0 -621 581zM303 1636q0 77 54 132t130 55t130.5 -55t54.5 -132q0 -75 -54.5 -129.5t-130.5 -54.5t-130 54.5t-54 129.5zM762 1636q0 77 54 132t130 55t131.5 -55.5t55.5 -131.5 q0 -75 -55.5 -129.5t-131.5 -54.5t-130 54.5t-54 129.5z" />
<glyph unicode="&#xdd;" horiz-adv-x="1372" d="M14 1352h400l176 -351l98 -208l100 208l175 351h395l-475 -867v-485h-394v485zM524 1470l111 332h334l-133 -332h-312z" />
<glyph unicode="&#xde;" horiz-adv-x="1370" d="M129 0v1352h393v-199h240q262 0 402 -118t139 -345q1 -227 -139 -345t-402 -118h-240v-227h-393zM522 514h187q201 0 198 176q3 174 -198 174h-187v-350z" />
<glyph unicode="&#xdf;" horiz-adv-x="1327" d="M104 0v928q0 260 143 396t460 136q258 0 398 -111t140 -288q0 -84 -38 -157t-116.5 -121t-181.5 -48v-4q168 0 267.5 -100.5t99.5 -259.5q0 -79 -27.5 -148t-81 -124t-142 -87t-202.5 -32q-170 0 -260 65l58 254q47 -47 127 -47q71 0 112 46.5t41 125.5q0 80 -49 122 t-141 42h-103l41 268h62q74 1 115.5 47.5t41.5 122.5q0 77 -45 118.5t-123 41.5q-115 0 -160.5 -64.5t-45.5 -216.5v-905h-390z" />
<glyph unicode="&#xe0;" horiz-adv-x="1198" d="M80 231q0 120 81.5 197t260.5 121q18 6 295 53v47q0 61 -37 97t-100 36q-144 0 -168 -143l-318 68q22 160 150.5 248.5t355.5 88.5q249 0 376.5 -100.5t127.5 -300.5v-346v-301h-338v127q-50 -73 -141 -112.5t-215 -39.5q-160 0 -245 68t-85 192zM285 1505h323l166 -356 h-317zM449 297q0 -42 30.5 -65t77.5 -23q64 0 112 36t48 97v96q-82 -12 -166 -35q-51 -16 -76.5 -44.5t-25.5 -61.5z" />
<glyph unicode="&#xe1;" horiz-adv-x="1198" d="M80 231q0 120 81.5 197t260.5 121q18 6 295 53v47q0 61 -37 97t-100 36q-144 0 -168 -143l-318 68q22 160 150.5 248.5t355.5 88.5q249 0 376.5 -100.5t127.5 -300.5v-346v-301h-338v127q-50 -73 -141 -112.5t-215 -39.5q-160 0 -245 68t-85 192zM422 1149l166 356h323 l-172 -356h-317zM449 297q0 -42 30.5 -65t77.5 -23q64 0 112 36t48 97v96q-82 -12 -166 -35q-51 -16 -76.5 -44.5t-25.5 -61.5z" />
<glyph unicode="&#xe2;" horiz-adv-x="1198" d="M80 231q0 120 81.5 197t260.5 121q18 6 295 53v47q0 61 -37 97t-100 36q-144 0 -168 -143l-318 68q22 160 150.5 248.5t355.5 88.5q249 0 376.5 -100.5t127.5 -300.5v-346v-301h-338v127q-50 -73 -141 -112.5t-215 -39.5q-160 0 -245 68t-85 192zM203 1137l221 356h371 l221 -356h-285l-123 196l-121 -196h-284zM449 297q0 -42 30.5 -65t77.5 -23q64 0 112 36t48 97v96q-82 -12 -166 -35q-51 -16 -76.5 -44.5t-25.5 -61.5z" />
<glyph unicode="&#xe3;" horiz-adv-x="1198" d="M80 231q0 120 81.5 197t260.5 121q18 6 295 53v47q0 61 -37 97t-100 36q-144 0 -168 -143l-318 68q22 160 150.5 248.5t355.5 88.5q249 0 376.5 -100.5t127.5 -300.5v-346v-301h-338v127q-50 -73 -141 -112.5t-215 -39.5q-160 0 -245 68t-85 192zM193 1137 q12 338 280 338q44 0 80.5 -11.5t59.5 -28.5t42.5 -33.5t40 -28t41.5 -11.5q32 0 49 26t23 82h213q-12 -335 -281 -335q-44 0 -80.5 11.5t-60 27.5t-43 32t-40 27.5t-42.5 11.5q-60 0 -72 -108h-210zM449 297q0 -42 30.5 -65t77.5 -23q64 0 112 36t48 97v96 q-82 -12 -166 -35q-51 -16 -76.5 -44.5t-25.5 -61.5z" />
<glyph unicode="&#xe4;" horiz-adv-x="1198" d="M80 231q0 120 81.5 197t260.5 121q18 6 295 53v47q0 61 -37 97t-100 36q-144 0 -168 -143l-318 68q22 160 150.5 248.5t355.5 88.5q249 0 376.5 -100.5t127.5 -300.5v-346v-301h-338v127q-50 -73 -141 -112.5t-215 -39.5q-160 0 -245 68t-85 192zM195 1309q0 77 54 131.5 t130 54.5t130 -54.5t54 -131.5q0 -75 -54 -130t-130 -55t-130 55t-54 130zM449 297q0 -42 30.5 -65t77.5 -23q64 0 112 36t48 97v96q-82 -12 -166 -35q-51 -16 -76.5 -44.5t-25.5 -61.5zM653 1309q0 77 54.5 131.5t130.5 54.5t131 -54.5t55 -131.5q0 -75 -55 -130t-131 -55 t-130.5 55t-54.5 130z" />
<glyph unicode="&#xe5;" horiz-adv-x="1198" d="M80 231q0 120 81.5 197t260.5 121q18 6 295 53v47q0 61 -37 97t-100 36q-144 0 -168 -143l-318 68q22 160 150.5 248.5t355.5 88.5q249 0 376.5 -100.5t127.5 -300.5v-346v-301h-338v127q-50 -73 -141 -112.5t-215 -39.5q-160 0 -245 68t-85 192zM360 1368 q0 103 73.5 175.5t178.5 72.5q103 0 175.5 -72.5t72.5 -175.5q0 -104 -72.5 -177t-175.5 -73q-106 0 -179 73t-73 177zM449 297q0 -42 30.5 -65t77.5 -23q64 0 112 36t48 97v96q-82 -12 -166 -35q-51 -16 -76.5 -44.5t-25.5 -61.5zM526 1368q0 -37 24.5 -61.5t61.5 -24.5 q34 0 59 25t25 61q0 33 -25.5 58.5t-58.5 25.5q-36 0 -61 -25t-25 -59z" />
<glyph unicode="&#xe6;" horiz-adv-x="1796" d="M55 229q0 131 89.5 204.5t291.5 113.5l246 51v51q0 65 -35 100t-102 35t-105 -33.5t-53 -111.5l-317 68q23 158 140 247.5t331 89.5q236 0 360 -139q124 139 330 139q240 0 371 -135t131 -358q0 -74 -11 -127h-665q27 -176 194 -176q66 0 99 25.5t49 78.5l313 -94 q-40 -137 -165 -207.5t-310 -70.5q-268 0 -383 192q-58 -91 -176 -141.5t-289 -50.5q-166 0 -250 67t-84 182zM426 287q0 -90 98 -90q65 0 111.5 38.5t46.5 114.5v86l-121 -28q-73 -20 -104 -46t-31 -75zM1055 590h317q-8 95 -42.5 141.5t-106.5 46.5q-73 0 -114.5 -45 t-53.5 -143z" />
<glyph unicode="&#xe7;" horiz-adv-x="1128" d="M59 506q0 150 72.5 274.5t198 195.5t274.5 71q162 0 287 -82.5t190 -227.5l-280 -137q-25 57 -81 93t-122 36q-88 0 -150.5 -65.5t-62.5 -157.5q0 -91 62.5 -156t150.5 -65q65 0 118.5 32.5t80.5 85.5l284 -131q-89 -198 -286 -268q123 -74 123 -199q0 -123 -84.5 -184 t-221.5 -61q-172 0 -262 86l84 172q60 -60 150 -60q50 0 81 27t31 72q0 38 -24 66t-84 50q-146 4 -267 73.5t-191.5 190.5t-70.5 269z" />
<glyph unicode="&#xe8;" horiz-adv-x="1187" d="M59 512q0 150 64 270.5t190 192.5t293 72q246 0 385 -138.5t139 -376.5q0 -71 -10 -116h-710q19 -85 73.5 -126.5t130.5 -41.5q69 0 119.5 27.5t63.5 76.5l313 -94q-39 -136 -171 -210.5t-312 -74.5q-272 0 -420 144t-148 395zM279 1505h323l166 -356h-317zM410 598h385 q-17 87 -67.5 133.5t-123.5 46.5q-161 0 -194 -180z" />
<glyph unicode="&#xe9;" horiz-adv-x="1187" d="M59 512q0 150 64 270.5t190 192.5t293 72q246 0 385 -138.5t139 -376.5q0 -71 -10 -116h-710q19 -85 73.5 -126.5t130.5 -41.5q69 0 119.5 27.5t63.5 76.5l313 -94q-39 -136 -171 -210.5t-312 -74.5q-272 0 -420 144t-148 395zM410 598h385q-17 87 -67.5 133.5 t-123.5 46.5q-161 0 -194 -180zM416 1149l166 356h323l-172 -356h-317z" />
<glyph unicode="&#xea;" horiz-adv-x="1187" d="M59 512q0 150 64 270.5t190 192.5t293 72q246 0 385 -138.5t139 -376.5q0 -71 -10 -116h-710q19 -85 73.5 -126.5t130.5 -41.5q69 0 119.5 27.5t63.5 76.5l313 -94q-39 -136 -171 -210.5t-312 -74.5q-272 0 -420 144t-148 395zM197 1137l221 356h370l222 -356h-285 l-123 196l-121 -196h-284zM410 598h385q-17 87 -67.5 133.5t-123.5 46.5q-161 0 -194 -180z" />
<glyph unicode="&#xeb;" horiz-adv-x="1187" d="M59 512q0 150 64 270.5t190 192.5t293 72q246 0 385 -138.5t139 -376.5q0 -71 -10 -116h-710q19 -85 73.5 -126.5t130.5 -41.5q69 0 119.5 27.5t63.5 76.5l313 -94q-39 -136 -171 -210.5t-312 -74.5q-272 0 -420 144t-148 395zM188 1309q0 77 54.5 131.5t130.5 54.5 t130 -54.5t54 -131.5q0 -75 -54 -130t-130 -55t-130.5 55t-54.5 130zM410 598h385q-17 87 -67.5 133.5t-123.5 46.5q-161 0 -194 -180zM647 1309q0 77 54 131.5t130 54.5q77 0 132 -55t55 -131q0 -75 -55.5 -130t-131.5 -55t-130 55t-54 130z" />
<glyph unicode="&#xec;" horiz-adv-x="595" d="M-27 1505h324l166 -356h-318zM104 0v1024h390v-1024h-390z" />
<glyph unicode="&#xed;" horiz-adv-x="595" d="M104 0v1024h390v-1024h-390zM117 1149l166 356h323l-172 -356h-317z" />
<glyph unicode="&#xee;" horiz-adv-x="595" d="M-109 1137l222 356h370l222 -356h-285l-123 196l-121 -196h-285zM104 0v1024h390v-1024h-390z" />
<glyph unicode="&#xef;" horiz-adv-x="595" d="M-82 1294q0 85 45 128.5t131 43.5t131 -43.5t45 -128.5q0 -172 -176 -172t-176 172zM104 0v1024h390v-1024h-390zM328 1294q0 172 176 172q174 0 174 -172t-174 -172q-176 0 -176 172z" />
<glyph unicode="&#xf0;" horiz-adv-x="1218" d="M70 500q0 243 137 380.5t366 137.5q203 0 281 -144q-38 172 -154 306l-323 -66l-21 117l262 35q-104 93 -278 209h340q114 -60 207 -156l250 57l28 -116l-207 -23q193 -252 193 -610q0 -341 -131.5 -494t-427.5 -153q-244 0 -383 137t-139 383zM461 500q0 -130 38.5 -190 t118.5 -60q87 0 127.5 61.5t40.5 188.5q0 144 -39 207t-124 63q-84 0 -123 -63.5t-39 -206.5z" />
<glyph unicode="&#xf1;" horiz-adv-x="1251" d="M96 0v1024h348l11 -203q47 110 138 166.5t216 56.5q158 0 250 -93t92 -263v-688h-389v584q0 91 -31 129.5t-90 38.5q-71 0 -113.5 -52.5t-42.5 -160.5v-539h-389zM209 1137q12 338 280 338q54 0 97.5 -17.5t66 -39t49.5 -39t52 -17.5q32 0 48.5 26t22.5 82h213 q-12 -335 -280 -335q-44 0 -80.5 11.5t-60 27.5t-43 32t-40 27.5t-42.5 11.5q-60 0 -72 -108h-211z" />
<glyph unicode="&#xf2;" horiz-adv-x="1181" d="M43 506q0 112 43 212.5t116.5 172.5t175 114t214.5 42q149 0 274.5 -71t199 -195.5t73.5 -274.5t-73.5 -273t-199 -191.5t-274.5 -68.5q-151 0 -276.5 68.5t-199 191t-73.5 273.5zM272 1505h324l166 -356h-318zM369 506q0 -92 64.5 -156.5t156.5 -64.5t157.5 64.5 t65.5 156.5q0 94 -65.5 159.5t-157.5 65.5t-156.5 -65.5t-64.5 -159.5z" />
<glyph unicode="&#xf3;" horiz-adv-x="1181" d="M43 506q0 112 43 212.5t116.5 172.5t175 114t214.5 42q149 0 274.5 -71t199 -195.5t73.5 -274.5t-73.5 -273t-199 -191.5t-274.5 -68.5q-151 0 -276.5 68.5t-199 191t-73.5 273.5zM369 506q0 -92 64.5 -156.5t156.5 -64.5t157.5 64.5t65.5 156.5q0 94 -65.5 159.5 t-157.5 65.5t-156.5 -65.5t-64.5 -159.5zM410 1149l165 356h324l-172 -356h-317z" />
<glyph unicode="&#xf4;" horiz-adv-x="1181" d="M43 506q0 112 43 212.5t116.5 172.5t175 114t214.5 42q149 0 274.5 -71t199 -195.5t73.5 -274.5t-73.5 -273t-199 -191.5t-274.5 -68.5q-151 0 -276.5 68.5t-199 191t-73.5 273.5zM190 1137l222 356h370l222 -356h-285l-123 196l-121 -196h-285zM369 506 q0 -92 64.5 -156.5t156.5 -64.5t157.5 64.5t65.5 156.5q0 94 -65.5 159.5t-157.5 65.5t-156.5 -65.5t-64.5 -159.5z" />
<glyph unicode="&#xf5;" horiz-adv-x="1181" d="M43 506q0 112 43 212.5t116.5 172.5t175 114t214.5 42q149 0 274.5 -71t199 -195.5t73.5 -274.5t-73.5 -273t-199 -191.5t-274.5 -68.5q-151 0 -276.5 68.5t-199 191t-73.5 273.5zM182 1137q6 169 77.5 253.5t203.5 84.5q44 0 80.5 -11.5t59.5 -28.5t42.5 -33.5t40 -28 t41.5 -11.5q32 0 49 26t23 82h213q-12 -335 -281 -335q-44 0 -80.5 11.5t-60 27.5t-43 32t-40 27.5t-42.5 11.5q-60 0 -72 -108h-211zM369 506q0 -92 64.5 -156.5t156.5 -64.5t157.5 64.5t65.5 156.5q0 94 -65.5 159.5t-157.5 65.5t-156.5 -65.5t-64.5 -159.5z" />
<glyph unicode="&#xf6;" horiz-adv-x="1181" d="M43 506q0 112 43 212.5t116.5 172.5t175 114t214.5 42q149 0 274.5 -71t199 -195.5t73.5 -274.5t-73.5 -273t-199 -191.5t-274.5 -68.5q-151 0 -276.5 68.5t-199 191t-73.5 273.5zM182 1309q0 77 54.5 131.5t130.5 54.5t130 -54.5t54 -131.5q0 -75 -54 -130t-130 -55 t-130.5 55t-54.5 130zM369 506q0 -92 64.5 -156.5t156.5 -64.5t157.5 64.5t65.5 156.5q0 94 -65.5 159.5t-157.5 65.5t-156.5 -65.5t-64.5 -159.5zM641 1309q0 77 54 131.5t130 54.5q77 0 132 -55t55 -131q0 -75 -55.5 -130t-131.5 -55t-130 55t-54 130z" />
<glyph unicode="&#xf7;" d="M92 535v270h1041v-270h-1041zM432 223q0 75 53 129t129 54t129.5 -54t53.5 -129q0 -77 -53.5 -130.5t-129.5 -53.5t-129 53.5t-53 130.5zM432 1120q0 77 53 130t129 53t129.5 -53.5t53.5 -129.5t-53 -129t-130 -53q-76 0 -129 53t-53 129z" />
<glyph unicode="&#xf8;" horiz-adv-x="1220" d="M59 512q0 252 145 392t406 140q187 0 322 -75l76 98h137l-129 -164q145 -139 145 -391t-145 -392t-406 -140q-183 0 -305 67l-74 -98h-137l121 160q-156 138 -156 403zM449 512q0 -63 20 -121h2l41 66l205 272q-34 45 -107 45q-85 0 -123 -60.5t-38 -201.5zM514 283 q30 -33 96 -33q84 0 122 60.5t38 201.5q0 54 -16 94h-2l-39 -59z" />
<glyph unicode="&#xf9;" horiz-adv-x="1241" d="M90 377v647h389v-590q0 -89 29.5 -125.5t91.5 -36.5q72 0 114 53t42 158v541h389v-1024h-352l-5 117q-35 -79 -110 -112.5t-213 -33.5q-375 0 -375 406zM293 1505h323l166 -356h-317z" />
<glyph unicode="&#xfa;" horiz-adv-x="1241" d="M90 377v647h389v-590q0 -89 29.5 -125.5t91.5 -36.5q72 0 114 53t42 158v541h389v-1024h-352l-5 117q-35 -79 -110 -112.5t-213 -33.5q-375 0 -375 406zM430 1149l166 356h324l-172 -356h-318z" />
<glyph unicode="&#xfb;" horiz-adv-x="1241" d="M90 377v647h389v-590q0 -89 29.5 -125.5t91.5 -36.5q72 0 114 53t42 158v541h389v-1024h-352l-5 117q-35 -79 -110 -112.5t-213 -33.5q-375 0 -375 406zM211 1137l221 356h371l221 -356h-285l-123 196l-120 -196h-285z" />
<glyph unicode="&#xfc;" horiz-adv-x="1241" d="M90 377v647h389v-590q0 -89 29.5 -125.5t91.5 -36.5q72 0 114 53t42 158v541h389v-1024h-352l-5 117q-35 -79 -110 -112.5t-213 -33.5q-375 0 -375 406zM203 1309q0 77 54 131.5t130 54.5t130 -54.5t54 -131.5q0 -75 -54 -130t-130 -55t-130 55t-54 130zM662 1309 q0 77 54 131.5t130 54.5t131 -54.5t55 -131.5q0 -75 -55 -130t-131 -55t-130 55t-54 130z" />
<glyph unicode="&#xfd;" horiz-adv-x="1245" d="M35 -369l78 256q34 -26 73 -36.5t105 -10.5q65 0 99 18t54 66l19 47l-121 287l-303 766h428l135 -485l45 -183l53 191l140 477h385l-351 -985q-91 -265 -213 -372t-335 -107q-177 0 -291 71zM481 1149l166 356h324l-172 -356h-318z" />
<glyph unicode="&#xfe;" horiz-adv-x="1273" d="M104 -430v1880h390v-610q43 95 122 149.5t191 54.5q85 0 156.5 -31.5t126.5 -93t86.5 -163t31.5 -232.5q0 -122 -25.5 -218.5t-66.5 -156.5t-96.5 -99t-110.5 -54.5t-114 -15.5q-207 0 -301 174v-584h-390zM494 502q0 -119 40.5 -180.5t118.5 -61.5q85 0 124.5 59 t39.5 193t-39.5 193t-124.5 59q-76 0 -117.5 -60.5t-41.5 -181.5v-20z" />
<glyph unicode="&#xff;" horiz-adv-x="1245" d="M35 -369l78 256q34 -26 73 -36.5t105 -10.5q65 0 99 18t54 66l19 47l-121 287l-303 766h428l135 -485l45 -183l53 191l140 477h385l-351 -985q-91 -265 -213 -372t-335 -107q-177 0 -291 71zM254 1309q0 77 54 131.5t130 54.5t130.5 -54.5t54.5 -131.5q0 -75 -54.5 -130 t-130.5 -55t-130 55t-54 130zM713 1309q0 77 54 131.5t130 54.5q77 0 131.5 -54.5t54.5 -131.5q0 -75 -55 -130t-131 -55t-130 55t-54 130z" />
<glyph unicode="&#x152;" horiz-adv-x="2121" d="M76 676q0 327 171 511.5t466 184.5q255 0 415 -170v150h920v-297h-666v-240h529v-278h-529v-240h693v-297h-947v150q-160 -170 -417 -170q-293 0 -464 185t-171 511zM471 676q0 -393 262 -393q260 0 260 393t-260 393q-262 0 -262 -393z" />
<glyph unicode="&#x153;" horiz-adv-x="1925" d="M59 512q0 251 142 391.5t389 140.5q265 0 391 -167q120 167 367 167q250 0 385 -135t135 -358q0 -67 -8 -121h-684q12 -98 59.5 -140t132.5 -42q136 0 168 104l313 -94q-40 -136 -167.5 -207t-313.5 -71q-261 0 -387 170q-126 -170 -391 -170q-247 0 -389 140.5 t-142 391.5zM453 512q0 -143 36.5 -202.5t120.5 -59.5q86 0 124 59.5t38 202.5q0 141 -38 201.5t-124 60.5q-84 0 -120.5 -60t-36.5 -202zM1176 596h325q-9 90 -46 136t-107 46q-75 0 -117 -43.5t-55 -138.5z" />
<glyph unicode="&#x178;" horiz-adv-x="1372" d="M14 1352h400l176 -351l98 -208l100 208l175 351h395l-475 -867v-485h-394v485zM272 1636q0 77 54.5 132t130.5 55t130 -55t54 -132q0 -75 -54 -129.5t-130 -54.5t-130.5 54.5t-54.5 129.5zM731 1636q0 77 54 132t130 55q77 0 132 -55.5t55 -131.5q0 -75 -55.5 -129.5 t-131.5 -54.5t-130 54.5t-54 129.5z" />
<glyph unicode="&#x2c6;" horiz-adv-x="1013" d="M100 1137l222 356h370l221 -356h-284l-123 196l-121 -196h-285z" />
<glyph unicode="&#x2dc;" horiz-adv-x="1013" d="M92 1137q6 169 77.5 253.5t203.5 84.5q44 0 80.5 -11.5t59.5 -28.5t42.5 -33.5t40 -28t41.5 -11.5q32 0 49 26t23 82h213q-12 -335 -281 -335q-44 0 -80.5 11.5t-60 27.5t-43 32t-40 27.5t-42.5 11.5q-60 0 -72 -108h-211z" />
<glyph unicode="&#x2000;" horiz-adv-x="911" />
<glyph unicode="&#x2001;" horiz-adv-x="1823" />
<glyph unicode="&#x2002;" horiz-adv-x="911" />
<glyph unicode="&#x2003;" horiz-adv-x="1823" />
<glyph unicode="&#x2004;" horiz-adv-x="607" />
<glyph unicode="&#x2005;" horiz-adv-x="455" />
<glyph unicode="&#x2006;" horiz-adv-x="303" />
<glyph unicode="&#x2007;" horiz-adv-x="303" />
<glyph unicode="&#x2008;" horiz-adv-x="227" />
<glyph unicode="&#x2009;" horiz-adv-x="364" />
<glyph unicode="&#x200a;" horiz-adv-x="101" />
<glyph unicode="&#x2010;" horiz-adv-x="1079" d="M156 397v308h766v-308h-766z" />
<glyph unicode="&#x2011;" horiz-adv-x="1079" d="M156 397v308h766v-308h-766z" />
<glyph unicode="&#x2012;" horiz-adv-x="1079" d="M156 397v308h766v-308h-766z" />
<glyph unicode="&#x2013;" horiz-adv-x="1417" d="M152 399v303h1114v-303h-1114z" />
<glyph unicode="&#x2014;" horiz-adv-x="2043" d="M152 399v303h1740v-303h-1740z" />
<glyph unicode="&#x2018;" horiz-adv-x="608" d="M96 911q-3 78 20 153t71.5 142t135.5 115t201 63l39 -190q-125 -32 -188 -98q59 -22 96 -74.5t37 -118.5q0 -85 -59.5 -144t-145.5 -59q-84 0 -143 62t-64 149z" />
<glyph unicode="&#x2019;" horiz-adv-x="608" d="M55 922q132 36 191 98q-61 22 -98 74.5t-37 117.5q0 85 59 144t145 59q84 0 143 -62t64 -149q3 -78 -20 -153t-71.5 -142t-135.5 -115t-201 -63z" />
<glyph unicode="&#x201a;" horiz-adv-x="593" d="M33 -111q126 31 190 99q-61 22 -98 73.5t-37 118.5q0 85 59.5 144t145.5 59q84 0 143 -62t64 -149q3 -78 -20 -153t-71.5 -142t-135.5 -115t-201 -63z" />
<glyph unicode="&#x201c;" horiz-adv-x="1136" d="M96 911q-3 78 20 153t71.5 142t135.5 115t201 63l39 -190q-125 -32 -188 -98q59 -22 96 -74.5t37 -118.5q0 -85 -59.5 -144t-145.5 -59q-84 0 -143 62t-64 149zM625 911q-3 78 20 153t71.5 142t135.5 115t201 63l39 -190q-129 -33 -191 -98q61 -22 98 -74t37 -119 q0 -85 -59.5 -144t-145.5 -59q-84 0 -142.5 61.5t-63.5 149.5z" />
<glyph unicode="&#x201d;" horiz-adv-x="1124" d="M55 922q132 36 191 98q-61 22 -98 74.5t-37 117.5q0 85 59 144t145 59q84 0 143 -62t64 -149q3 -78 -20 -153t-71.5 -142t-135.5 -115t-201 -63zM571 922q132 36 191 98q-61 22 -98 74.5t-37 117.5q0 85 59 144t145 59q84 0 143 -62t64 -149q3 -78 -20 -153t-71.5 -142 t-135.5 -115t-201 -63z" />
<glyph unicode="&#x201e;" horiz-adv-x="1110" d="M33 -111q126 31 190 99q-61 22 -98 73.5t-37 118.5q0 85 59.5 144t145.5 59q84 0 143 -62t64 -149q3 -78 -20 -153t-71.5 -142t-135.5 -115t-201 -63zM549 -111q126 31 190 99q-61 22 -98 73.5t-37 118.5q0 85 59.5 144t145.5 59q84 0 143 -62t64 -149q3 -78 -20 -153 t-71.5 -142t-135.5 -115t-201 -63z" />
<glyph unicode="&#x2022;" horiz-adv-x="870" d="M113 680q0 131 93.5 224t225.5 93t226 -93t94 -224q0 -132 -94 -226t-226 -94t-225.5 94t-93.5 226z" />
<glyph unicode="&#x2026;" horiz-adv-x="1894" d="M98 180q0 85 59.5 144t145.5 59q85 0 144 -59t59 -144q0 -86 -59 -145.5t-144 -59.5q-86 0 -145.5 59.5t-59.5 145.5zM741 180q0 85 59.5 144t145.5 59q85 0 144 -59t59 -144q0 -86 -59 -145.5t-144 -59.5q-86 0 -145.5 59.5t-59.5 145.5zM1382 180q0 85 59.5 144 t145.5 59q85 0 144 -59t59 -144q0 -86 -59 -145.5t-144 -59.5q-86 0 -145.5 59.5t-59.5 145.5z" />
<glyph unicode="&#x202f;" horiz-adv-x="364" />
<glyph unicode="&#x2039;" horiz-adv-x="704" d="M59 543l256 401h330l-244 -401l244 -402h-330z" />
<glyph unicode="&#x203a;" horiz-adv-x="704" d="M59 141l244 402l-244 401h330l256 -401l-256 -402h-330z" />
<glyph unicode="&#x205f;" horiz-adv-x="455" />
<glyph unicode="&#x20ac;" horiz-adv-x="1427" d="M-160 451l70 163h137q-2 20 -2 62v33h-205l70 163h162q65 229 256 376t434 147q190 0 352.5 -93t257.5 -249l-319 -185q-47 72 -123.5 114t-167.5 42q-88 0 -163 -41t-122 -111h430l-55 -163h-434q-2 -10 -2 -33q0 -32 6 -62h407l-53 -163h-276q48 -57 117 -90t145 -33 q91 0 169 43t124 116l319 -186q-97 -157 -259 -249.5t-353 -92.5q-235 0 -422 137t-258 355h-242z" />
<glyph unicode="&#x2122;" horiz-adv-x="1681" d="M25 1192v160h637v-160h-209v-516h-220v516h-208zM739 676v676h320l90 -295l33 -131h6l31 131l92 295h311v-676h-215v254l10 215h-6l-43 -162l-98 -307h-176l-99 309l-45 160h-4l10 -215v-254h-217z" />
<glyph unicode="&#x25fc;" horiz-adv-x="1024" d="M0 0v1024h1024v-1024h-1024z" />
</font>
</defs>
</svg>
